Loading...
Error

Скачать ОА / The OA (сезон 01) (Зал Батманглидж) [2016, драма, детектив, мистика, WEBRip] [1080p] [DVO (Hamster)]+[Eng]+[Subs] торрент без регистрации

Статистика раздачи
Размер:  43,8 GB   |    Скачан:  24 раза
Сидов:  9  [  0 KB/s  ]   Личеров:  1  [  0 KB/s  ]  

 
 
 
Автор Сообщение

МихаНЕзатор

[] 

Информация о фильме
Название: ОА
Оригинальное название: The OA
Год выхода: 2016
Жанр: драма, детектив, мистика
Режиссер: Зал Батманглидж

В ролях: Иэн Александр, Уилл Брилл, Эмори Коэн, Патрик Гибсон, Брит Марлинг, Брендан Мейер, Брэндон Переа, Скотт Уилсон, Роберт Эли, Маркус Чои

О фильме: В центре истории девушка двадцати лет по имени Прерия Джонсон, которая возвращается домой через семь лет после загадочного исчезновения. Что с ней произошло, никто не знает, а сама девушка не рассказывает, лишь утверждает, что все это время была поблизости. Еще больше интриги добавляет чудесное прозрение девушки — до исчезновения она была слепой, поэтому членов семьи она узнает только на ощупь.



Страна: США
Студия: NETFLIX, Anonymous Content, Plan B Entertainment
Продолжительность: 8 x ~ 00:30:00 - 01:10:00
Перевод: любительский двухголосный, закадровый [HamsterStudio]

Файл
Кодек: H.264
Качество: WEBRip 1080p
Видео: AVC, 1920x1080 (16:9), 23.976 fps ~ 8500-14500 Kbps
Звук:
AC3, 48 KHz 2 ch ~ 192-384 Kb/s (русский)
AC3, 48 KHz 6 ch ~ 384 Kb/s (английский)
Субтитры: английские, французские, немецкие, итальянские, испанские

АНОНСЫ ПОПУЛЯРНЫХ РАЗДАЧ


Торрент обновлён, улучшен видеоряд, заменён перевод, добавлена 8-я серия!

Общее
Уникальный идентификатор : 243337327536042451529519458716104152785 (0xB7111087961852D58A0302DB3C6256D1)
Полное имя : Q:TorFThe.OA.S01.1080pThe.OA.S01E01.PROPER.1080p.WEBRip.mkv
Формат : Matroska
Версия формата : Version 2
Размер файла : 7,35 Гбайт
Продолжительность : 1 ч. 10 м.
Общий поток : 14,9 Мбит/сек
Дата кодирования : UTC 2017-01-12 07:52:33
Программа кодирования : mkvmerge v5.4.0 ('Piper') built on Mar 10 2012 13:34:39
Библиотека кодирования : libebml v1.2.3 + libmatroska v1.3.0
DURATION : 01:10:48.288000000
NUMBER_OF_FRAMES : 132759
NUMBER_OF_BYTES : 203917824
_STATISTICS_WRITING_APP : mkvmerge v7.8.0 ('River Man') 64bit built on Mar 27 2015 16:31:37
_STATISTICS_WRITING_DATE_UTC : 2017-01-04 10:20:29
_STATISTICS_TAGS : BPS DURATION NUMBER_OF_FRAMES NUMBER_OF_BYTES

Видео
Идентификатор : 1
Формат : AVC
Формат/Информация : Advanced Video Codec
Профиль формата : High@L4.1
Параметр CABAC формата : Да
Параметр ReFrames формата : 4 кадра
Идентификатор кодека : V_MPEG4/ISO/AVC
Продолжительность : 1 ч. 10 м.
Битрейт : 13,8 Мбит/сек
Ширина : 1920 пикселей
Высота : 1080 пикселей
Соотношение сторон : 16:9
Частота кадров : 23,976 кадра/сек
Цветовое пространство : YUV
Субдискретизация насыщенности : 4:2:0
Битовая глубина : 8 бит
Тип развёртки : Прогрессивная
Бит/(Пиксели*Кадры) : 0.278
Размер потока : 6,82 Гбайт (93%)
Библиотека кодирования : x264 core 148 r2744+8 b97ae06 / tmod bb0ae40 X86_64
Настройки программы : cabac=1 / ref=4 / deblock=1:-3:-3 / analyse=0x3:0x133 / me=umh / subme=11 / psy=1 / fade_compensate=0.00 / psy_rd=1.05:0.15 / mixed_ref=1 / me_range=48 / chroma_me=1 / trellis=2 / 8x8dct=1 / cqm=0 / deadzone=6,6 / fast_pskip=0 / chroma_qp_offset=-3 / threads=22 / lookahead_threads=5 / sliced_threads=0 / nr=0 / decimate=0 / interlaced=0 / bluray_compat=0 / constrained_intra=0 / fgo=0 / bframes=10 / b_pyramid=2 / b_adapt=2 / b_bias=0 / direct=3 / weightb=1 / open_gop=0 / weightp=2 / keyint=250 / keyint_min=23 / scenecut=40 / intra_refresh=0 / rc=crf / mbtree=0 / crf=19.0000 / qcomp=0.75 / qpmin=0:0:0 / qpmax=69:69:69 / qpstep=4 / ip_ratio=1.10 / pb_ratio=1.10 / aq=3:0.60 / aq-sensitivity=10.00 / aq-factor=1.00:1.00:1.00 / aq2=0 / aq3=0
Язык : English
Default : Да
Forced : Нет

Аудио #1
Идентификатор : 2
Формат : AC-3
Формат/Информация : Audio Coding 3
Расширение режима : CM (complete main)
Идентификатор кодека : A_AC3
Продолжительность : 1 ч. 10 м.
Вид битрейта : Постоянный
Битрейт : 384 Кбит/сек
Каналы : 2 канала
Расположение каналов : Front: L R
Частота : 48,0 КГц
Битовая глубина : 16 бит
Метод сжатия : С потерями
Задержка видео : 2 с. 2 мс.
Размер потока : 194 Мбайт (3%)
Заголовок : HamsterStudio
Язык : Russian
Default : Да
Forced : Нет

Аудио #2
Идентификатор : 3
Формат : AC-3
Формат/Информация : Audio Coding 3
Расширение режима : CM (complete main)
Идентификатор кодека : A_AC3
Продолжительность : 1 ч. 10 м.
Вид битрейта : Постоянный
Битрейт : 384 Кбит/сек
Каналы : 6 каналов
Расположение каналов : Front: L C R, Side: L R, LFE
Частота : 48,0 КГц
Битовая глубина : 16 бит
Метод сжатия : С потерями
Размер потока : 194 Мбайт (3%)
Язык : English
Default : Нет
Forced : Нет

Текст #1
Идентификатор : 4
Формат : UTF-8
Идентификатор кодека : S_TEXT/UTF8
Идентификатор кодека/Информация : UTF-8 Plain Text
Заголовок : English (Forced)
Язык : English
Default : Да
Forced : Да

Текст #2
Идентификатор : 5
Формат : UTF-8
Идентификатор кодека : S_TEXT/UTF8
Идентификатор кодека/Информация : UTF-8 Plain Text
Заголовок : English
Язык : English
Default : Нет
Forced : Нет

Текст #3
Идентификатор : 6
Формат : UTF-8
Идентификатор кодека : S_TEXT/UTF8
Идентификатор кодека/Информация : UTF-8 Plain Text
Заголовок : English (SDH)
Язык : English
Default : Нет
Forced : Нет

Текст #4
Идентификатор : 7
Формат : UTF-8
Идентификатор кодека : S_TEXT/UTF8
Идентификатор кодека/Информация : UTF-8 Plain Text
Заголовок : French
Язык : French
Default : Нет
Forced : Нет

Текст #5
Идентификатор : 8
Формат : UTF-8
Идентификатор кодека : S_TEXT/UTF8
Идентификатор кодека/Информация : UTF-8 Plain Text
Заголовок : German
Язык : German
Default : Нет
Forced : Нет

Текст #6
Идентификатор : 9
Формат : UTF-8
Идентификатор кодека : S_TEXT/UTF8
Идентификатор кодека/Информация : UTF-8 Plain Text
Заголовок : Italian
Язык : Italian
Default : Нет
Forced : Нет

Текст #7
Идентификатор : 10
Формат : UTF-8
Идентификатор кодека : S_TEXT/UTF8
Идентификатор кодека/Информация : UTF-8 Plain Text
Заголовок : Spanish
Язык : Spanish
Default : Нет
Forced : Нет
ГОЛОСОВАЯ РЕКЛАМА В НАЧАЛЬНЫХ И КОНЕЧНЫХ ТИТРАХ




Скачать ОА.The.OA.(сезон.01).(Зал.Батманглидж).[2016.драма.детектив.мистика.WEBRip].[1080p].[DVO.(Hamster)]+[Eng]+[Subs].torrent без регистрации
Золото ЗОЛОТАЯ РАЗДАЧА! СКАЧАННОЕ НЕ ЗАСЧИТЫВАЕТСЯ! Золото
Дата: Зарегистрирован   [ Тип: внешний ] Как тут cкачать?
MAGNET ссылка
MAGNET ссылка


Скачать .torrent

220 KB

Статус: проверено DHT
Скачан: торрент - 24 раз, раздача полностью - 203 раз
Размер: 43,8 GB
Оценка:  4 (Голосов: 1)
Поблагодарили: 1
Поделиться ссылкой на эту раздачу с друзьями:
В контактеFacebookОдноклассникиTwitterLivejournalМой МирLiveinternet
 

 
Показать сообщения:    


Вы не можете начинать темы
Вы не можете отвечать на сообщения
Вы не можете редактировать свои сообщения
Вы не можете удалять свои сообщения
Вы не можете голосовать в опросах
Вы не можете прикреплять файлы к сообщениям
Вы можете скачивать файлы