Loading...
Error

Скачать Изумрудный город / Emerald City (сезон 01) (Тарсем Сингх) [2017, фэнтези, WEB-DLRip] [720p] [MVO (OMSKBIRD)] торрент без регистрации

Статистика раздачи
Размер:  9,41 GB   |    Скачан:  7 раз
Сидов:  3  [  0 KB/s  ]   Личеров:  4  [  0 KB/s  ]  
 
 
 
Автор Сообщение

МихаНЕзатор

[] 

Информация о фильме
Название: Изумрудный город
Оригинальное название: Emerald City
Год выхода: 2017
Жанр: фэнтези
Режиссер: Тарсем Сингх

В ролях: Герран Хауэлл, Адриа Архона, Винсент Д’Онофрио, Оливер Джексон-Коэн, Изабель Лукас, Стефани Мартини, Ана Улару, Рокси Штернберг, Ребека Ри, Оулавюр Дарри Оулафссон и др.

О фильме: В мгновение ока, торнадо уносит 20-летнюю Дороти Гейл и её полицейскую собаку в мир, далекий от нашего — мистическую землю, охваченную кровавой войной между конкурирующими королевствами, в страну Оз. Дороти попадает в этот опасный мир и раскрывает свою истинную судьбу.



Страна: США
Продолжительность: ~ 44 мин. серия
Перевод: Любительский (многоголосый закадровый) | OMSKBIRD

Файл
Кодек: MPEG-4 AVC
Качество: WEB-DLRip 720p
Видео: AVC, 1280x720 (16:9), 23.976 fps, ~ 3000 kbps
Звук: Аудио rus: AC-3, 48 KHz, 2 ch, 192 kbps | OMSKBIRD records

АНОНСЫ ПОПУЛЯРНЫХ РАЗДАЧ


Торрент обновлён, добавлена 10-я серия!
General
Unique ID : 216422182315117989693700510260174762367 (0xA2D1656A6A8A54F3AFE88031820FB17F)
Complete name : F:Мои ДокументыВидеоРАЗДАЧИИГИзумрудEmerald City S01 WEB-DLRip 720p (OMSKBIRD)Emerald City S01E01 WEB-DLRip 720p (OMSKBIRD).mkv
Format : Matroska
Format version : Version 2
File size : 917 MiB
Duration : 40mn 51s
Overall bit rate mode : Constant
Overall bit rate : 3 137 Kbps
Encoded date : UTC 2017-01-08 10:56:31
Writing application : mkvmerge v4.0.0 ('The Stars were mine') сборка от Jun 6 2010 16:18:42
Writing library : libebml v1.0.0 + libmatroska v1.0.0

Video
ID : 1
Format : AVC
Format/Info : Advanced Video Codec
Format profile : Main@L4.1
Format settings, CABAC : Yes
Format settings, ReFrames : 3 frames
Codec ID : V_MPEG4/ISO/AVC
Duration : 40mn 51s
Bit rate mode : Constant
Bit rate : 3 000 Kbps
Width : 1 280 pixels
Height : 720 pixels
Display aspect ratio : 16:9
Frame rate : 23.976 fps
Standard : NTSC
Color space : YUV
Chroma subsampling : 4:2:0
Bit depth : 8 bits
Scan type : Progressive
Bits/(Pixel*Frame) : 0.136
Stream size : 842 MiB (92%)
Language : English
Default : Yes
Forced : No

Audio
ID : 2
Format : AC-3
Format/Info : Audio Coding 3
Mode extension : CM (complete main)
Format settings, Endianness : Big
Codec ID : A_AC3
Duration : 40mn 51s
Bit rate mode : Constant
Bit rate : 192 Kbps
Channel(s) : 2 channels
Channel positions : Front: L R
Sampling rate : 48.0 KHz
Bit depth : 16 bits
Compression mode : Lossy
Stream size : 56.1 MiB (6%)
Default : Yes
Forced : No
Перевод • Николай Исаков
Роли озвучивали • Павел Ярощик, Алексей Гнеушев, Наталья Ланц
Звукорежиссер • Павел Квентов
Постер • Ксения Просветова
Релиз подготовил • Gater
Внимание! Раздача ведётся путём добавления новых серий; при каждом добавлении создаётся новый торрент. Чтобы начать докачку новой серии, пользователям необходимо сделать следующее:
Остановить скачивание.
Удалить старый торрент у себя из клиента (старые серии удалять не надо).
Скачать новый торрент и запустить его у себя в клиенте вместо старого, при этом указать клиенту путь в старую папку куда и должно происходить скачивание новых серий.
Ваш клиент при этом должен произвести хеширование (проверку) старой папки (если не производит сам - помогите ему сделать это), и будет докачивать только те серии которых у вас ещё нет. Старые серии при этом не удаляются, а продолжают раздаваться!
Eсли вы уже удалили старые серии, то предотвратить повторную закачку старых серий можно, отжав галочку в соответсвующих местах при запуске нового торрента. По возможности, желательно не удалять старые серии как можно дольше чтобы релизёр не столько продолжал раздавать старые серии, а смог сконцентрироваться на новых.




Скачать Изумрудный.город.Emerald.City.(сезон.01).(Тарсем.Сингх).[2017.фэнтези.WEB-DLRip].[720p].[MVO.(OMSKBIRD)].torrent без регистрации
Золото ЗОЛОТАЯ РАЗДАЧА! СКАЧАННОЕ НЕ ЗАСЧИТЫВАЕТСЯ! Золото
Дата: Зарегистрирован   [ Тип: внешний ] Как тут cкачать?
MAGNET ссылка
MAGNET ссылка


Скачать .torrent

25 KB

Статус: проверено DHT
Скачан: торрент - 7 раз, раздача полностью - 2 раз
Размер: 9,41 GB
Оценка:  - (Голосов: 0)
Поблагодарили: 0
Поделиться ссылкой на эту раздачу с друзьями:
В контактеFacebookОдноклассникиTwitterLivejournalМой МирLiveinternet
 

 
Показать сообщения:    


Вы не можете начинать темы
Вы не можете отвечать на сообщения
Вы не можете редактировать свои сообщения
Вы не можете удалять свои сообщения
Вы не можете голосовать в опросах
Вы не можете прикреплять файлы к сообщениям
Вы можете скачивать файлы