Loading...
Error

Скачать Ханой-Хилтон / The Hanoi Hilton (Лайонел Четвинд) [1987, драма, военный, HDTVRip] [720p] [DVO] торрент без регистрации

Статистика раздачи
Размер:  2,45 GB   |    Скачан:  20 раз
Сидов:  1  [  0 KB/s  ]  
 
 
 
Автор Сообщение

Marsianka

[] 

Информация о фильме
Название: Ханой-Хилтон
Оригинальное название: The Hanoi Hilton
Год выхода: 1987
Жанр: драма, военный
Режиссер: Lionel Chetwynd / Лайонел Четвинд
В ролях:
Майкл Мориарти — капитан-лейтенант Уильямсон
Джон Эдвин Шоу — Мейсон
Кен Райт — Кеннеди
Пол Ле Мэт — Эрл Хабман
Дэвид Соул — майор Олдхэм
Даг Сэвант — Эшби
Джеффри Джонс — майор Фишер
Лоуренс Прессман — полковник Кэтчерт
Аки Алеонг — майор Нго Док

О фильме:
Капитан-лейтенант Уильямсон попадает в тюрьму Хоало, где содержатся американские пилоты, которые дали ей прозвище «Ханой Хилтон». В тюрьме солдат ждёт непростая борьба за сохранение себя и своего достоинства.


Страна: США
Студия: Cannon Group, Golan-Globus Productions
Продолжительность: 02:00:38.400
Перевод: Профессиональный (двуголосый закадровый) НТВ+ пер. Ю. Сербина

Файл
Кодек: h.264
Качество: HDTVRip 720p Источник HDTV 1080 MGMHD
Видео: 1280x720 (16:9), 25.000 fps, AVC, ~2493 Kbps, 0.108 bits/pixel

Русский, 48.0 KHz, AC3, 2 ch, 160 Kbps
Английский, 48.0 KHz, AC3, 2 ch, 192 Kbps
Субтитры: нет
Общее
Уникальный идентификатор : 250942629478051300677285130222075969527 (0xBCC9CADD93D9EF32BDB4F3733384FFF7)
Полное имя : E:FILMSHanoi_Hilton.1987.HDTVRip720p.mkv
Формат : Matroska
Версия формата : Version 4 / Version 2
Размер файла : 2,45 Гбайт
Продолжительность : 2 ч. 0 м.
Общий поток : 2903 Кбит/сек
Дата кодирования : UTC 2017-01-08 10:30:16
Программа кодирования : mkvmerge v9.7.1 ('Pandemonium') 64bit
Библиотека кодирования : libebml v1.3.4 + libmatroska v1.4.5

Видео
Идентификатор : 1
Формат : AVC
Формат/Информация : Advanced Video Codec
Профиль формата : High@L4.1
Параметр CABAC формата : Да
Параметр ReFrames формата : 9 кадров
Идентификатор кодека : V_MPEG4/ISO/AVC
Продолжительность : 2 ч. 0 м.
Битрейт : 2549 Кбит/сек
Ширина : 1280 пикселей
Высота : 720 пикселей
Соотношение сторон : 16:9
Режим частоты кадров : Постоянный
Частота кадров : 25,000 кадров/сек
Цветовое пространство : YUV
Субдискретизация насыщенности : 4:2:0
Битовая глубина : 8 бит
Тип развёртки : Прогрессивная
Бит/(Пиксели*Кадры) : 0.111
Размер потока : 2,15 Гбайт (88%)
Библиотека кодирования : x264 core 148 r2638 7599210
Настройки программы : cabac=1 / ref=9 / deblock=1:-3:-3 / analyse=0x3:0x133 / me=umh / subme=11 / psy=1 / psy_rd=1.10:0.15 / mixed_ref=1 / me_range=48 / chroma_me=1 / trellis=2 / 8x8dct=1 / cqm=0 / deadzone=21,11 / fast_pskip=0 / chroma_qp_offset=-3 / threads=8 / lookahead_threads=1 / sliced_threads=0 / nr=0 / decimate=0 / interlaced=0 / bluray_compat=0 / constrained_intra=0 / bframes=6 / b_pyramid=2 / b_adapt=2 / b_bias=0 / direct=3 / weightb=1 / open_gop=0 / weightp=2 / keyint=250 / keyint_min=25 / scenecut=40 / intra_refresh=0 / rc_lookahead=60 / rc=crf / mbtree=0 / crf=20.2 / qcomp=0.60 / qpmin=0 / qpmax=69 / qpstep=4 / vbv_maxrate=40000 / vbv_bufsize=50000 / crf_max=0.0 / nal_hrd=none / filler=0 / ip_ratio=1.40 / pb_ratio=1.30 / aq=1:1.00
Default : Нет
Forced : Нет
Цветовой диапазон : Limited
Основные цвета : BT.709
Характеристики трансфера : BT.709
Коэффициенты матрицы : BT.709

Аудио #1
Идентификатор : 2
Формат : AC-3
Формат/Информация : Audio Coding 3
Расширение режима : CM (complete main)
Параметр Endianness формата : Big
Идентификатор кодека : A_AC3
Продолжительность : 2 ч. 0 м.
Вид битрейта : Постоянный
Битрейт : 160 Кбит/сек
Каналы : 2 канала
Расположение каналов : Front: L R
Частота : 48,0 КГц
Частота кадров : 31,250 кадров/сек (1536 spf)
Битовая глубина : 16 бит
Метод сжатия : С потерями
Размер потока : 138 Мбайт (6%)
Язык : Russian
Default : Да
Forced : Нет

Аудио #2
Идентификатор : 3
Формат : AC-3
Формат/Информация : Audio Coding 3
Расширение режима : CM (complete main)
Параметр Endianness формата : Big
Идентификатор кодека : A_AC3
Продолжительность : 2 ч. 0 м.
Вид битрейта : Постоянный
Битрейт : 192 Кбит/сек
Каналы : 2 канала
Расположение каналов : Front: L R
Частота : 48,0 КГц
Частота кадров : 31,250 кадров/сек (1536 spf)
Битовая глубина : 16 бит
Метод сжатия : С потерями
Размер потока : 166 Мбайт (7%)
Язык : English
Default : Нет
Forced : Нет
frame I:1082 Avg QP:17.34 size: 87971
frame P:45280 Avg QP:19.05 size: 29330
frame B:134598 Avg QP:21.42 size: 6560
Релиз от: Temperest



Скачать Ханой-Хилтон.The.Hanoi.Hilton.(Лайонел.Четвинд).[1987.драма.военный.HDTVRip].[720p].[DVO].torrent без регистрации
Золото ЗОЛОТАЯ РАЗДАЧА! СКАЧАННОЕ НЕ ЗАСЧИТЫВАЕТСЯ! Золото
Дата: Зарегистрирован   [ Тип: внутренний ] Как тут cкачать?
MAGNET ссылка
MAGNET ссылка


Скачать .torrent

13 KB

Статус: проверено DHT
Скачан: торрент - 20 раз, раздача полностью - 2 раз
Размер: 2,45 GB
Оценка:  - (Голосов: 0)
Поблагодарили: 1
Поделиться ссылкой на эту раздачу с друзьями:
В контактеFacebookОдноклассникиTwitterLivejournalМой МирLiveinternet
 

 
Показать сообщения:    


Вы не можете начинать темы
Вы не можете отвечать на сообщения
Вы не можете редактировать свои сообщения
Вы не можете удалять свои сообщения
Вы не можете голосовать в опросах
Вы не можете прикреплять файлы к сообщениям
Вы можете скачивать файлы