Loading...
Error

Скачать Шербургские зонтики / Шербурские зонтики / Les parapluies de Cherbourg (Жак Деми) [1964, мюзикл, драма, мелодрама, BDRip] [720p] [MVO]+[DVO]+[AVO]+[Sub]x2 торрент без регистрации

Статистика раздачи
Размер:  7,18 GB   |    Скачан:  22 раза
Сидов:  1  [  0 KB/s  ]  
 
 
 
Автор Сообщение

Marsianka

[] 

Шербургские зонтики

Les parapluies de Cherbourg

«a film for all the young lovers of the world»


Страна: Франция, Германия (ФРГ)
Жанр: мюзикл, драма, мелодрама
Год выпуска: 1964
Продолжительность: 01:32:13
Перевод: Профессиональный (многоголосый, закадровый), Профессиональный (двухголосый, закадровый), Авторский
Субтитры: русские, английские.
Режиссер: Жак Деми / Jacques Demy
В ролях: Катрин Денёв (Geneviève Emery), Нино Кастельнуово (Guy Foucher), Анн Вернон (Madame Emery), Марк Мишель (Roland Cassard), Эллен Фарнер (Madeleine), Мирей Перре (Tante Élise), Жан Шампьон (Aubin), Пьер Каден (Bernard), Жан-Пьер Дора (Jean), Бернар Фраде (Gas Station Apprentice), Мишель Бенуа (Umbrella Buyer), Филипп Дюма (Garage Customer in 1957)
Описание: Юная Женевьева работает в семейном галантерейном магазинчике - продает зонтики. Она влюблена в автомеханика Ги, и тот отвечает ей взаимностью. Но вскоре Ги забирают в армию и отправляют в Алжир. Расставаясь, влюбленные обещают ждать друг друга. Затем Женевьева узнает, что она беременна, а вестей от любимого все нет, и девушка соглашается на брак с состоятельным и солидным мужчиной...

Семпл
Качество: BDRip
Контейнер: MKV

Видео: AVC, 1280x692 (1.85:1), 10158 kbps, 23,976 fps, 0,478 bpp
Аудио №1: русский / AC3 / 2.0 / 48 kHz / 192 kbps / MVO ( SomeWax )
Аудио №2: русский / AC3 / 2.0 / 48 kHz / 192 kbps / DVO ( Дивайс/Светла/Tivionica )
Аудио №3: русский / AC3 / 2.0 / 48 kHz / 192 kbps / AVO ( Союзмультфильм - Н. Александрович )
Аудио №4: французский / AC3 / 2.0 / 48 kHz / 192 kbps
Навигация по главам: есть

*******************************************************************
x264 [info]: frame I:642 Avg QP:18.66 size:165018
x264 [info]: frame P:23562 Avg QP:20.05 size: 85585
x264 [info]: frame B:108460 Avg QP:22.17 size: 46603
*******************************************************************
Формат : Matroska
Версия формата : Version 2
Размер файла : 7,18 Гбайт
Продолжительность : 1 ч. 32 м.
Общий поток : 11,1 Мбит/сек
Название фильма : = Шербурские зонтики / Les parapluies de Cherbourg (1964) BDRip 720p by SC Kosmos =
Дата кодирования : UTC 2017-01-09 09:34:53
Программа кодирования : mkvmerge v5.8.0 ('No Sleep / Pillow') built on Sep 2 2012 15:37:04
Библиотека кодирования : libebml v1.2.3 + libmatroska v1.3.0
Attachment : Yes

Видео
Идентификатор : 1
Формат : AVC
Формат/Информация : Advanced Video Codec
Профиль формата : High@L4.1
Параметр CABAC формата : Да
Параметр ReFrames формата : 8 кадров
Идентификатор кодека : V_MPEG4/ISO/AVC
Продолжительность : 1 ч. 32 м.
Битрейт : 10,2 Мбит/сек
Ширина : 1280 пикселей
Высота : 692 пикселя
Соотношение сторон : 1,85:1
Режим частоты кадров : Постоянный
Частота кадров : 23,976 кадра/сек
Цветовое пространство : YUV
Субдискретизация насыщенности : 4:2:0
Битовая глубина : 8 бит
Тип развёртки : Прогрессивная
Бит/(Пиксели*Кадры) : 0.478
Размер потока : 6,54 Гбайт (91%)
Заголовок : Шербурские зонтики / Les parapluies de Cherbourg (1964) BDRip 720p by SC Kosmos
Библиотека кодирования : x264 core 148 r2705 3f5ed56
Настройки программы : cabac=1 / ref=8 / deblock=1:-2:-2 / analyse=0x3:0x113 / me=umh / subme=11 / psy=1 / psy_rd=1.05:0.00 / mixed_ref=1 / me_range=32 / chroma_me=1 / trellis=2 / 8x8dct=1 / cqm=0 / deadzone=21,11 / fast_pskip=0 / chroma_qp_offset=-2 / threads=12 / lookahead_threads=3 / sliced_threads=0 / nr=0 / decimate=1 / interlaced=0 / bluray_compat=0 / constrained_intra=0 / bframes=10 / b_pyramid=2 / b_adapt=2 / b_bias=0 / direct=3 / weightb=1 / open_gop=0 / weightp=2 / keyint=240 / keyint_min=23 / scenecut=40 / intra_refresh=0 / rc_lookahead=40 / rc=crf / mbtree=0 / crf=18.0 / qcomp=0.60 / qpmin=0 / qpmax=69 / qpstep=4 / vbv_maxrate=62500 / vbv_bufsize=78125 / crf_max=0.0 / nal_hrd=none / filler=0 / ip_ratio=1.40 / pb_ratio=1.30 / aq=1:0.70
Язык : French
Default : Да
Forced : Нет

Аудио #1
Идентификатор : 2
Формат : AC-3
Формат/Информация : Audio Coding 3
Расширение режима : CM (complete main)
Параметр Endianness формата : Big
Идентификатор кодека : A_AC3
Продолжительность : 1 ч. 32 м.
Вид битрейта : Постоянный
Битрейт : 192 Кбит/сек
Каналы : 2 канала
Расположение каналов : Front: L R
Частота : 48,0 КГц
Битовая глубина : 16 бит
Метод сжатия : С потерями
Размер потока : 127 Мбайт (2%)
Заголовок : MVO ( SomeWax )
Язык : Russian
Default : Да
Forced : Нет

Аудио #2
Идентификатор : 3
Формат : AC-3
Формат/Информация : Audio Coding 3
Расширение режима : CM (complete main)
Параметр Endianness формата : Big
Идентификатор кодека : A_AC3
Продолжительность : 1 ч. 32 м.
Вид битрейта : Постоянный
Битрейт : 192 Кбит/сек
Каналы : 2 канала
Расположение каналов : Front: L R
Частота : 48,0 КГц
Битовая глубина : 16 бит
Метод сжатия : С потерями
Размер потока : 127 Мбайт (2%)
Заголовок : DVO ( Дивайс/Светла/Tivionica )
Язык : Russian
Default : Нет
Forced : Нет

Аудио #3
Идентификатор : 4
Формат : AC-3
Формат/Информация : Audio Coding 3
Расширение режима : CM (complete main)
Параметр Endianness формата : Big
Идентификатор кодека : A_AC3
Продолжительность : 1 ч. 32 м.
Вид битрейта : Постоянный
Битрейт : 192 Кбит/сек
Каналы : 2 канала
Расположение каналов : Front: L R
Частота : 48,0 КГц
Битовая глубина : 16 бит
Метод сжатия : С потерями
Размер потока : 127 Мбайт (2%)
Заголовок : AVO ( Союзмультфильм - Н. Александрович )
Язык : Russian
Default : Нет
Forced : Нет

Аудио #4
Идентификатор : 5
Формат : AC-3
Формат/Информация : Audio Coding 3
Расширение режима : CM (complete main)
Параметр Endianness формата : Big
Идентификатор кодека : A_AC3
Продолжительность : 1 ч. 32 м.
Вид битрейта : Постоянный
Битрейт : 192 Кбит/сек
Каналы : 2 канала
Расположение каналов : Front: L R
Частота : 48,0 КГц
Битовая глубина : 16 бит
Метод сжатия : С потерями
Размер потока : 127 Мбайт (2%)
Язык : French
Default : Нет
Forced : Нет

Текст #1
Идентификатор : 6
Формат : UTF-8
Идентификатор кодека : S_TEXT/UTF8
Идентификатор кодека/Информация : UTF-8 Plain Text
Заголовок : SomeWax
Язык : Russian
Default : Нет
Forced : Нет

Текст #2
Идентификатор : 7
Формат : UTF-8
Идентификатор кодека : S_TEXT/UTF8
Идентификатор кодека/Информация : UTF-8 Plain Text
Заголовок : СОЮЗ Видео
Язык : Russian
Default : Нет
Forced : Нет

Текст #3
Идентификатор : 8
Формат : UTF-8
Идентификатор кодека : S_TEXT/UTF8
Идентификатор кодека/Информация : UTF-8 Plain Text
Заголовок : Дивайс/Светла/Tivionica
Язык : Russian
Default : Нет
Forced : Нет

Текст #4
Идентификатор : 9
Формат : UTF-8
Идентификатор кодека : S_TEXT/UTF8
Идентификатор кодека/Информация : UTF-8 Plain Text
Язык : English
Default : Нет
Forced : Нет

Меню
00:00:00.000 : en:00:00:00.000
00:10:32.799 : en:00:10:32.799
00:15:19.210 : en:00:15:19.210
00:20:41.991 : en:00:20:41.991
00:28:29.374 : en:00:28:29.374
00:38:08.369 : en:00:38:08.369
00:42:37.555 : en:00:42:37.555
00:47:42.568 : en:00:47:42.568
00:55:20.442 : en:00:55:20.442
00:57:57.057 : en:00:57:57.057
01:04:29.741 : en:01:04:29.741
01:07:42.642 : en:01:07:42.642
01:12:38.938 : en:01:12:38.938
01:21:57.412 : en:01:21:57.412
01:25:08.687 : en:01:25:08.687




Скачать Шербургские.зонтики.Шербурские.зонтики.Les.parapluies.de.Cherbourg.(Жак.Деми).[1964.мюзикл.драма.мелодрама.BDRip].[720p].[MVO]+[DVO]+[AVO]+[Sub]x2.torrent без регистрации
Золото ЗОЛОТАЯ РАЗДАЧА! СКАЧАННОЕ НЕ ЗАСЧИТЫВАЕТСЯ! Золото
Дата: Зарегистрирован   [ Тип: внутренний ] Как тут cкачать?
MAGNET ссылка
MAGNET ссылка


Скачать .torrent

37 KB

Статус: проверено DHT
Скачан: торрент - 22 раз, раздача полностью - 7 раз
Размер: 7,18 GB
Оценка:  - (Голосов: 0)
Поблагодарили: 1
Поделиться ссылкой на эту раздачу с друзьями:
В контактеFacebookОдноклассникиTwitterLivejournalМой МирLiveinternet
 

 
Показать сообщения:    


Вы не можете начинать темы
Вы не можете отвечать на сообщения
Вы не можете редактировать свои сообщения
Вы не можете удалять свои сообщения
Вы не можете голосовать в опросах
Вы не можете прикреплять файлы к сообщениям
Вы можете скачивать файлы