Loading...
Error

Скачать Человек, обманувший смерть / The Man Who Could Cheat Death (Теренс Фишер) [1959, ужасы, фантастика, драма, BDRip] [1080p] [MVO]+[AVO]+[Eng]+[Sub] торрент без регистрации

Статистика раздачи
Размер:  5,68 GB   |    Скачан:  1 раз
Сидов:  1  [  0 KB/s  ]  

 
 
 
Автор Сообщение

Marsianka

[] 

Информация о фильме
Название: Человек, обманувший смерть
Оригинальное название: The Man Who Could Cheat Death
Год выхода: 1959
Жанр: ужасы, фантастика, драма
Режиссер: Теренс Фишер / Terence Fisher
В ролях: Антон Диффринг, Кристофер Ли, Арнольд Марле, Хазель Курт, Франсис Де Вольф, Дельфи Лоуренс

О фильме: Доктор Бонне рассчитывает жить вечно, продлевая себе жизнь путём периодической трансплантации околощитовидных желез от своих молодых и здоровых жертв. Он выглядит на 40 лет, хотя на самом деле ему 104. Со временем окружающие его люди начинают что-то подозревать…



Страна: Великобритания
Студия: Hammer Films

Продолжительность: 01:22:50
Перевод #1: Профессиональный (многоголосый, закадровый) Paramount Channel
Перевод #2: Любительский (одноголосый, закадровый) Oneinchnales
Cубтитры : Русский
Контейнер: MKV
Качество: BDRip 1080p
Видео: MPEG-4 AVC, High@L4.1, 9 239 kb/s, 1 808 x 1 080, 23.976 fps
Аудио 1 : Русский (AC3, 2ch, 192 kb/s, 48.0 KHz) MVO Paramount Channel
Аудио 2 : Русский (AC3, 2ch, 192 kb/s, 48.0 KHz) AVO Oneinchnales
Аудио 3 : Английский (AC3, 2ch, 192 kb/s, 48.0 KHz)
Субтитры : Russian softsub SRT (Oneinchnales)

Навигация по главам: есть (En)
Глобальные тэги: есть
Общее
Уникальный идентификатор : 199315814585187913038196566252998252338 (0x95F2D45EB2516CF0A75F1BA949425732)
Полное имя : E:Человек, обманувший смерть The Man Who Could Cheat Death (1959).mkv
Формат : Matroska
Версия формата : Version 4 / Version 2
Размер файла : 5,68 Гбайт
Продолжительность : 1 ч. 22 м.
Общий поток : 9819 Кбит/сек
Название фильма : The Man Who Could Cheat Death
Тип содержимого : Movie
Описание : HIS HIDEOUS OBSESSION LED HIM TO COMMIT GHASTLY CRIMES OF PASSION AND VIOLENCE.
Дата выпуска : 1959-06-15
Дата кодирования : UTC 2017-01-10 13:13:13
Программа кодирования : mkvmerge v9.7.1 ('Pandemonium') 64bit
Библиотека кодирования : libebml v1.3.4 + libmatroska v1.4.5
Обложка : Yes
Attachments : cover.jpg
ACTOR : Anton Diffring, Hazel Court, Christopher Lee, Arnold Marlé, Delphi Lawrence, Francis de Wolff, Gerda Larsen, Middleton Woods, Michael Ripper, Denis Shaw, Marie Burke, Charles Lloyd Pack
ARTIST : Anton Diffring, Hazel Court, Christopher Lee, Arnold Marlé, Delphi Lawrence, Francis de Wolff, Gerda Larsen, Middleton Woods, Michael Ripper, Denis Shaw, Marie Burke, Charles Lloyd Pack
DIRECTOR : Terence Fisher
GENRE : Horror, Science Fiction
LAW_RATING : NR
PRODUCER : Anthony Nelson Keys, Michael Carreras
PRODUCTION_STUDIO : Hammer Film Productions
SCREENPLAY_BY : Jimmy Sangster
SUMMARY : HIS HIDEOUS OBSESSION LED HIM TO COMMIT GHASTLY CRIMES OF PASSION AND VIOLENCE.
SYNOPSIS : Dr. Bonner plans to live forever through periodic gland transplants from younger, healthier human victims. Bonner looks about 40; he's really 104 years old. But people are starting to get suspicious, and he may not make 200.

Видео
Идентификатор : 1
Формат : AVC
Формат/Информация : Advanced Video Codec
Профиль формата : High@L4.1
Параметр CABAC формата : Да
Параметр ReFrames формата : 4 кадра
Идентификатор кодека : V_MPEG4/ISO/AVC
Продолжительность : 1 ч. 22 м.
Битрейт : 9239 Кбит/сек
Ширина : 1808 пикселей
Высота : 1080 пикселей
Соотношение сторон : 5:3
Режим частоты кадров : Постоянный
Частота кадров : 23,976 (24000/1001) кадра/сек
Цветовое пространство : YUV
Субдискретизация насыщенности : 4:2:0
Битовая глубина : 8 бит
Тип развёртки : Прогрессивная
Бит/(Пиксели*Кадры) : 0.197
Размер потока : 5,35 Гбайт (94%)
Библиотека кодирования : x264 core 115 r1937 aa21558
Настройки программы : cabac=1 / ref=4 / deblock=1:-1:-1 / analyse=0x3:0x113 / me=umh / subme=7 / psy=1 / psy_rd=1.00:0.00 / mixed_ref=1 / me_range=16 / chroma_me=1 / trellis=1 / 8x8dct=1 / cqm=0 / deadzone=21,11 / fast_pskip=1 / chroma_qp_offset=-2 / threads=12 / sliced_threads=0 / nr=0 / decimate=1 / interlaced=0 / bluray_compat=0 / constrained_intra=0 / bframes=3 / b_pyramid=2 / b_adapt=2 / b_bias=0 / direct=3 / weightb=1 / open_gop=0 / weightp=2 / keyint=250 / keyint_min=23 / scenecut=40 / intra_refresh=0 / rc_lookahead=40 / rc=2pass / mbtree=1 / bitrate=9239 / ratetol=1.0 / qcomp=0.60 / qpmin=0 / qpmax=69 / qpstep=4 / cplxblur=20.0 / qblur=0.5 / vbv_maxrate=50000 / vbv_bufsize=50000 / nal_hrd=none / ip_ratio=1.40 / aq=1:1.00
Язык : English
Default : Да
Forced : Да

Аудио #1
Идентификатор : 2
Формат : AC-3
Формат/Информация : Audio Coding 3
Расширение режима : CM (complete main)
Параметр Endianness формата : Big
Идентификатор кодека : A_AC3
Продолжительность : 1 ч. 22 м.
Вид битрейта : Постоянный
Битрейт : 192 Кбит/сек
Каналы : 2 канала
Расположение каналов : Front: L R
Частота : 48,0 КГц
Частота кадров : 31,250 кадров/сек (1536 spf)
Битовая глубина : 16 бит
Метод сжатия : С потерями
Размер потока : 114 Мбайт (2%)
Заголовок : MVO Paramount Channel
Язык : Russian
Default : Да
Forced : Нет

Аудио #2
Идентификатор : 3
Формат : AC-3
Формат/Информация : Audio Coding 3
Расширение режима : CM (complete main)
Параметр Endianness формата : Big
Идентификатор кодека : A_AC3
Продолжительность : 1 ч. 22 м.
Вид битрейта : Постоянный
Битрейт : 192 Кбит/сек
Каналы : 2 канала
Расположение каналов : Front: L R
Частота : 48,0 КГц
Частота кадров : 31,250 кадров/сек (1536 spf)
Битовая глубина : 16 бит
Метод сжатия : С потерями
Размер потока : 114 Мбайт (2%)
Заголовок : AVO Oneinchnales
Язык : Russian
Default : Нет
Forced : Нет

Аудио #3
Идентификатор : 4
Формат : AC-3
Формат/Информация : Audio Coding 3
Расширение режима : CM (complete main)
Параметр Endianness формата : Big
Идентификатор кодека : A_AC3
Продолжительность : 1 ч. 22 м.
Вид битрейта : Постоянный
Битрейт : 192 Кбит/сек
Каналы : 2 канала
Расположение каналов : Front: L R
Частота : 48,0 КГц
Частота кадров : 31,250 кадров/сек (1536 spf)
Битовая глубина : 16 бит
Метод сжатия : С потерями
Размер потока : 114 Мбайт (2%)
Язык : English
Default : Нет
Forced : Да

Текст
Идентификатор : 5
Формат : UTF-8
Идентификатор кодека : S_TEXT/UTF8
Идентификатор кодека/Информация : UTF-8 Plain Text
Продолжительность : 1 ч. 22 м.
Битрейт : 107 бит/сек
Count of elements : 1004
Размер потока : 64,7 Кбайт (0%)
Заголовок : SRT Oneinchnales
Язык : Russian
Default : Да
Forced : Нет

Меню
00:00:00.000 : en:Main Title / Murder In The Dark
00:03:37.200 : en:A Surprising Reception
00:10:22.400 : en:Carriage Ride
00:10:44.600 : en:"Too Late!"
00:14:58.000 : en:The Statue
00:17:34.200 : en:Ludwig's Visit
00:27:24.001 : en:Going Away
00:30:35.802 : en:Georges' Operation
00:35:10.703 : en:The Inspector
00:41:38.103 : en:Playing God
00:52:23.904 : en:Find Someone Else
00:53:39.904 : en:Questioning Georges' Past
00:58:39.104 : en:Pierre Warns Janine
01:01:33.304 : en:"1798"
01:04:45.404 : en:An Offense Against God
01:10:11.404 : en:The Working Girl
01:11:52.205 : en:Georges' Secret Revealed
01:20:18.705 : en:Fire / End Credits




Скачать Человек.обманувший.смерть.The.Man.Who.Could.Cheat.Death.(Теренс.Фишер).[1959.ужасы.фантастика.драма.BDRip].[1080p].[MVO]+[AVO]+[Eng]+[Sub].torrent без регистрации
Золото ЗОЛОТАЯ РАЗДАЧА! СКАЧАННОЕ НЕ ЗАСЧИТЫВАЕТСЯ! Золото
Дата: Зарегистрирован   [ Тип: внутренний ] Как тут cкачать?
MAGNET ссылка
MAGNET ссылка


Скачать .torrent

29 KB

Статус: проверено DHT
Скачан: торрент - 1 раз, раздача полностью - 0 раз
Размер: 5,68 GB
Оценка:  - (Голосов: 0)
Поблагодарили: 0
Поделиться ссылкой на эту раздачу с друзьями:
В контактеFacebookОдноклассникиTwitterLivejournalМой МирLiveinternet
 

 
Показать сообщения:    


Вы не можете начинать темы
Вы не можете отвечать на сообщения
Вы не можете редактировать свои сообщения
Вы не можете удалять свои сообщения
Вы не можете голосовать в опросах
Вы не можете прикреплять файлы к сообщениям
Вы можете скачивать файлы