Loading...
Error

Скачать Молодая кровь / Youngblood (Питер Маркл) [1986, спортивная драма, HDTVRip] [720p] [DVO] торрент без регистрации

Статистика раздачи
Размер:  3,14 GB   |    Скачан:  1 раз
Сидов:  1  [  0 KB/s  ]  

 
 
 
Автор Сообщение

Marsianka

[] 

Информация о фильме
Название: Молодая кровь
Оригинальное название: Youngblood
Год выхода: 1986
Жанр: спортивная драма
Режиссер: Питер Маркл / Peter Markle
В ролях: Роб Лоу, Синтия Гибб, Патрик Суэйзи, Эд Лотер, Джим Янгс, Эрик Нестеренко, Джордж Дж. Финн, Фионнула Флэнаган, Кен Джеймс, Питер Фоссетт

О фильме:
Дин Янгблад хочет вырваться с фермы отца, мечтает играть в малой хоккейной лиге Канады, где хочет стать лучшим игроком. Его полуслепой брат Келли, который когда-то играл в той же команде, до того как получил травму, говорит отцу, что будет работать за двоих, чтобы Дин мог осуществить свою мечту. Отец соглашается, и Дин уезжает. Он приезжает в город невинным парнем, которого уже через неделю соблазняет его домовладелица мисс Макгилл. Над ним смеются его друзья по команде. Он влюбляется в первую же девушку, с которой ему удается познакомиться. Она оказалась дочерью тренера и ответила ему взаимностью…


Страна: США
Студия: Blueline Productions, Guber-Peters Company, The, United Artists
Продолжительность: 01:45:25.920
Перевод: Профессиональный (двухголосый закадровый) НТВ+

Файл
Кодек: h.264
Качество: HDTVRip 720p Источник HDTV 1080i MGM HD
Видео: 1280x720 (16:9), 25.000 fps, AVC, ~3876 Kbps, 0.168 bits/pixel

Русский, 48.0 KHz, AC3, 2 ch, 192 Kbps
Английский, 48.0 KHz, AC3, 2 ch, 192 Kbps
Субтитры: нет
Общее
Уникальный идентификатор : 238014620040292419710196115597619525439 (0xB30FF2C9EEE13865A791B685563E773F)
Полное имя : E:FILMSMolodaya_krov.1986.HDTVRip720p.mkv
Формат : Matroska
Версия формата : Version 4 / Version 2
Размер файла : 3,14 Гбайт
Продолжительность : 1 ч. 45 м.
Общий поток : 4260 Кбит/сек
Дата кодирования : UTC 2017-01-10 19:34:41
Программа кодирования : mkvmerge v9.7.1 ('Pandemonium') 64bit
Библиотека кодирования : libebml v1.3.4 + libmatroska v1.4.5

Видео
Идентификатор : 1
Формат : AVC
Формат/Информация : Advanced Video Codec
Профиль формата : High@L4.1
Параметр CABAC формата : Да
Параметр ReFrames формата : 9 кадров
Идентификатор кодека : V_MPEG4/ISO/AVC
Продолжительность : 1 ч. 45 м.
Битрейт : 3876 Кбит/сек
Ширина : 1280 пикселей
Высота : 720 пикселей
Соотношение сторон : 16:9
Режим частоты кадров : Постоянный
Частота кадров : 25,000 кадров/сек
Цветовое пространство : YUV
Субдискретизация насыщенности : 4:2:0
Битовая глубина : 8 бит
Тип развёртки : Прогрессивная
Бит/(Пиксели*Кадры) : 0.168
Размер потока : 2,85 Гбайт (91%)
Библиотека кодирования : x264 core 148 r2638 7599210
Настройки программы : cabac=1 / ref=9 / deblock=1:-3:-3 / analyse=0x3:0x133 / me=umh / subme=11 / psy=1 / psy_rd=1.10:0.15 / mixed_ref=1 / me_range=48 / chroma_me=1 / trellis=2 / 8x8dct=1 / cqm=0 / deadzone=21,11 / fast_pskip=0 / chroma_qp_offset=-3 / threads=8 / lookahead_threads=1 / sliced_threads=0 / nr=0 / decimate=0 / interlaced=0 / bluray_compat=0 / constrained_intra=0 / bframes=6 / b_pyramid=2 / b_adapt=2 / b_bias=0 / direct=3 / weightb=1 / open_gop=0 / weightp=2 / keyint=250 / keyint_min=25 / scenecut=40 / intra_refresh=0 / rc_lookahead=60 / rc=2pass / mbtree=0 / bitrate=3876 / ratetol=1.0 / qcomp=0.60 / qpmin=0 / qpmax=69 / qpstep=4 / cplxblur=20.0 / qblur=0.5 / vbv_maxrate=40000 / vbv_bufsize=50000 / nal_hrd=none / filler=0 / ip_ratio=1.40 / pb_ratio=1.30 / aq=1:1.00
Default : Нет
Forced : Нет
Цветовой диапазон : Limited
Основные цвета : BT.709
Характеристики трансфера : BT.709
Коэффициенты матрицы : BT.709

Аудио #1
Идентификатор : 2
Формат : AC-3
Формат/Информация : Audio Coding 3
Расширение режима : CM (complete main)
Параметр Endianness формата : Big
Идентификатор кодека : A_AC3
Продолжительность : 1 ч. 45 м.
Вид битрейта : Постоянный
Битрейт : 192 Кбит/сек
Каналы : 2 канала
Расположение каналов : Front: L R
Частота : 48,0 КГц
Частота кадров : 31,250 кадров/сек (1536 spf)
Битовая глубина : 16 бит
Метод сжатия : С потерями
Размер потока : 145 Мбайт (5%)
Язык : Russian
Default : Да
Forced : Нет

Аудио #2
Идентификатор : 3
Формат : AC-3
Формат/Информация : Audio Coding 3
Расширение режима : CM (complete main)
Параметр Endianness формата : Big
Идентификатор кодека : A_AC3
Продолжительность : 1 ч. 45 м.
Вид битрейта : Постоянный
Битрейт : 192 Кбит/сек
Каналы : 2 канала
Расположение каналов : Front: L R
Частота : 48,0 КГц
Частота кадров : 31,250 кадров/сек (1536 spf)
Битовая глубина : 16 бит
Метод сжатия : С потерями
Размер потока : 145 Мбайт (5%)
Язык : English
Default : Нет
Forced : Нет
Релиз от: Temperest




Скачать Молодая.кровь.Youngblood.(Питер.Маркл).[1986.спортивная.драма.HDTVRip].[720p].[DVO].torrent без регистрации
Золото ЗОЛОТАЯ РАЗДАЧА! СКАЧАННОЕ НЕ ЗАСЧИТЫВАЕТСЯ! Золото
Дата: Зарегистрирован   [ Тип: внутренний ] Как тут cкачать?
MAGNET ссылка
MAGNET ссылка


Скачать .torrent

16 KB

Статус: проверено DHT
Скачан: торрент - 1 раз, раздача полностью - 0 раз
Размер: 3,14 GB
Оценка:  - (Голосов: 0)
Поблагодарили: 0
Поделиться ссылкой на эту раздачу с друзьями:
В контактеFacebookОдноклассникиTwitterLivejournalМой МирLiveinternet
 

 
Показать сообщения:    


Вы не можете начинать темы
Вы не можете отвечать на сообщения
Вы не можете редактировать свои сообщения
Вы не можете удалять свои сообщения
Вы не можете голосовать в опросах
Вы не можете прикреплять файлы к сообщениям
Вы можете скачивать файлы