Loading...
Error

Скачать Смертельное Оружие / Lethal Weapon (Сезон 01) (Стив Бойум, МакДжи) [2016, боевик, триллер, драма, криминал, WEB-DL] [720p] 4x[MVO] (LostFilm, NewStudio, OmskBird, BaibaKo) + [Orig] торрент без регистрации

Статистика раздачи
Размер:  32,98 GB   |    Скачан:  17 раз
Сидов:  1  [  0 KB/s  ]  

 
 
 
Автор Сообщение

leon030982

[] 


Смертельное Оружие / Lethal Weapon



Год выпуска: 2016
Страна: США
Жанр: боевик, триллер, драма, криминал
Продолжительность: ~00:46:00
Перевод: Профессиональный (многоголосый закадровый) LostFilm
Перевод: Профессиональный (многоголосый закадровый) NewStudio
Перевод: Профессиональный (многоголосый закадровый) OmskBird
Перевод: Профессиональный (многоголосый закадровый) BaibaKo

Режиссёр: Стив Бойум, МакДжи

В ролях: Клейн Кроуфорд, Дэймон Уайанс, Джордана Брюстер, Данте Браун, Джонатан Фернандес, Чандлер Кинни, Кевин Рам, Киша Шарп, Флориана Лима и другие.

Описание: Сюжет сосредоточится на копе из Техаса, который, потеряв жену и ребёнка, перебирается на службу в Лос-Анджелес. Там ему суждено стать напарником уже немолодого детектива, которому из-за недавнего инфаркта врачи прописали избегать стрессов. Но с новым коллегой, буквально лезущим под пули, сделать это будет попросту невозможно.



Качество: WEB-DL 720p
Контейнер: MKV
Видео: H.264, 1280x718 (16:9), 23.976 fps, ~4000 kbps, 0.183 bit/pixel
Аудио # 1: 48 kHz, AC3, 3/2 (L,C,R,l,r) + LFE ch, ~384.00 kbps avg - LostFilm
Аудио # 2: 48 kHz, AC3, 3/2 (L,C,R,l,r) + LFE ch, ~384.00 kbps avg - NewStudio
Аудио # 3: 48 kHz, AC3, 3/2 (L,C,R,l,r) + LFE ch, ~384.00 kbps avg - OMSKBIRD
Аудио # 4: 48 kHz, AC3, 3/2 (L,C,R,l,r) + LFE ch, ~384.00 kbps avg - BaibaKo
Аудио # 5: 48 kHz, AC3, 3/2 (L,C,R,l,r) + LFE ch, ~384.00 kbps avg - English
Субтитры: английские

В релизе отсутствует реклама
Релиз: Grandfather61
особая благодарность OmskBird за предоставленные голоса и k-marat-s за предоставленную звуковую дорожку LostFilm
Дорожка 1 получена наложением выделенных голосов от «LostFilm» на центр оригинального AC3 - k-marat-s
Дорожка 3 получена наложением чистых голосов от «OmskBird» на центр оригинального AC3.
Монтаж, работа со звуком: Grandfather61
General
Unique ID : 237423318244132768446625350542416229587 (0xB29E115C02A22CA986506C80710934D3)
Complete name : G:\Films\Lethal.Weapon.S01.720p.WEB-DL\Lethal.Weapon.S01E01.720p.WEB-DL.4xRus.Eng.mkv
Format : Matroska
Format version : Version 4 / Version 2
File size : 1.95 GiB
Duration : 46mn 58s
Overall bit rate : 5 945 Kbps
Encoded date : UTC 2016-10-07 09:01:38
Writing application : mkvmerge v9.4.2 ('So High') 64bit
Writing library : libebml v1.3.4 + libmatroska v1.4.5
Video
ID : 1
Format : AVC
Format/Info : Advanced Video Codec
Format profile : High@L3.1
Format settings, CABAC : No
Format settings, ReFrames : 2 frames
Codec ID : V_MPEG4/ISO/AVC
Duration : 46mn 58s
Bit rate : 4 022 Kbps
Width : 1 280 pixels
Height : 718 pixels
Display aspect ratio : 16:9
Frame rate mode : Constant
Frame rate : 23.976 (23976/1000) fps
Color space : YUV
Chroma subsampling : 4:2:0
Bit depth : 8 bits
Scan type : Progressive
Bits/(Pixel*Frame) : 0.183
Stream size : 1.32 GiB (68%)
Language : English
Default : Yes
Forced : No
Color range : Limited
Color primaries : BT.709
Transfer characteristics : BT.709
Matrix coefficients : BT.709
Audio #1
ID : 2
Format : AC-3
Format/Info : Audio Coding 3
Mode extension : CM (complete main)
Format settings, Endianness : Big
Codec ID : A_AC3
Duration : 46mn 58s
Bit rate mode : Constant
Bit rate : 384 Kbps
Channel(s) : 6 channels
Channel positions : Front: L C R, Side: L R, LFE
Sampling rate : 48.0 KHz
Frame rate : 31.250 fps (1536 spf)
Compression mode : Lossy
Stream size : 129 MiB (6%)
Title : LostFilm 5.1
Language : Russian
Default : Yes
Forced : No
Audio #2
ID : 3
Format : AC-3
Format/Info : Audio Coding 3
Mode extension : CM (complete main)
Format settings, Endianness : Big
Codec ID : A_AC3
Duration : 46mn 58s
Bit rate mode : Constant
Bit rate : 384 Kbps
Channel(s) : 6 channels
Channel positions : Front: L C R, Side: L R, LFE
Sampling rate : 48.0 KHz
Frame rate : 31.250 fps (1536 spf)
Compression mode : Lossy
Stream size : 129 MiB (6%)
Title : NewStudio 5.1
Language : Russian
Default : No
Forced : No
Audio #3
ID : 4
Format : AC-3
Format/Info : Audio Coding 3
Mode extension : CM (complete main)
Format settings, Endianness : Big
Codec ID : A_AC3
Duration : 46mn 58s
Bit rate mode : Constant
Bit rate : 384 Kbps
Channel(s) : 6 channels
Channel positions : Front: L C R, Side: L R, LFE
Sampling rate : 48.0 KHz
Frame rate : 31.250 fps (1536 spf)
Compression mode : Lossy
Stream size : 129 MiB (6%)
Title : Omskbird 5.1
Language : Russian
Default : No
Forced : No
Audio #4
ID : 5
Format : AC-3
Format/Info : Audio Coding 3
Mode extension : CM (complete main)
Format settings, Endianness : Big
Codec ID : A_AC3
Duration : 46mn 58s
Bit rate mode : Constant
Bit rate : 384 Kbps
Channel(s) : 6 channels
Channel positions : Front: L C R, Side: L R, LFE
Sampling rate : 48.0 KHz
Frame rate : 31.250 fps (1536 spf)
Compression mode : Lossy
Stream size : 129 MiB (6%)
Title : BaibaKO 5.1
Language : Russian
Default : No
Forced : No
Audio #5
ID : 6
Format : AC-3
Format/Info : Audio Coding 3
Mode extension : CM (complete main)
Format settings, Endianness : Big
Codec ID : A_AC3
Duration : 46mn 58s
Bit rate mode : Constant
Bit rate : 384 Kbps
Channel(s) : 6 channels
Channel positions : Front: L C R, Side: L R, LFE
Sampling rate : 48.0 KHz
Frame rate : 31.250 fps (1536 spf)
Compression mode : Lossy
Stream size : 129 MiB (6%)
Title : eng
Language : English
Default : No
Forced : No
Text
ID : 7
Format : UTF-8
Codec ID : S_TEXT/UTF8
Codec ID/Info : UTF-8 Plain Text
Duration : 46mn 15s
Bit rate : 127 bps
Count of elements : 1150
Stream size : 43.2 KiB (0%)
Title : CC
Language : English
Default : No
Forced : No
Внимание! Раздача ведётся путём добавления новых серий; при каждом добавлении создётся новый торрент. Чтобы начать докачку новой серии, пользователям необходимо сделать следующее:
Остановить скачивание.
Удалить старый торрент у себя из клиента (старые серии удалять не надо).
Скачать новый торрент и запустить его у себя в клиенте вместо старого, при этом указать клиенту путь в старую папку куда и должно происходить скачивание новых серий.
Ваш клиент при этом должен произвести хеширование (проверку) старой папки (если не производит сам - помогите ему сделать это), и будет докачивать только те серии которых у вас ещё нет. Старые серии при этом не удаляются, а продолжают раздаваться!
Eсли вы уже удалили старые серии, то предотвратить повторную закачку старых серий можно, отжав галочку в соответсвующих местах при запуске нового торрента. По возможности, желательно не удалять старые серии как можно дольше чтобы релизёр не столько продолжал раздавать старые серии, а смог сконцентрироваться на новых.




Скачать Смертельное.Оружие.Lethal.Weapon.(Сезон.01).(Стив.Бойум.МакДжи).[2016.боевик.триллер.драма.криминал.WEB-DL].[720p].4x[MVO].(LostFilm.NewStudio.OmskBird.BaibaKo).+.[Orig].torrent без регистрации
Золото ЗОЛОТАЯ РАЗДАЧА! СКАЧАННОЕ НЕ ЗАСЧИТЫВАЕТСЯ! Золото
Дата: Зарегистрирован   [ Тип: внутренний ] Как тут cкачать?
MAGNET ссылка
MAGNET ссылка


Скачать .torrent

84 KB

Статус: проверено DHT
Скачан: торрент - 17 раз, раздача полностью - 4 раз
Размер: 32,98 GB
Оценка:  - (Голосов: 0)
Поблагодарили: 1
Поделиться ссылкой на эту раздачу с друзьями:
В контактеFacebookОдноклассникиTwitterLivejournalМой МирLiveinternet
 

 
Показать сообщения:    


Вы не можете начинать темы
Вы не можете отвечать на сообщения
Вы не можете редактировать свои сообщения
Вы не можете удалять свои сообщения
Вы не можете голосовать в опросах
Вы не можете прикреплять файлы к сообщениям
Вы можете скачивать файлы