Loading...
Error

: / Z: The Beginning of Everything ( 01) ( , ) [2017, , WEBRip] [720p] [MVO] (Jaskier) + [Original]

18,46 GB   |    :  11
1  [  0 KB/s  ]  
 
 
 

leon030982

[] 

: / Z: The Beginning of Everything

: Z: The Beginning of Everything
: :
: 2017
:
:
: ~ 00:25:00
: ( ) Jaskier
: ()

: ,

: , , , , , .

: , , , . , , , , , . . , , , , ! , , !


: WEBRip 720p
: MKV
: AVC
: AC3, E-AC3
: 1280x720 (16:9), 23.976 fps, ~7800kbps, ~0.353 bit/pixel
1: Dolby AC3 48000Hz 5.1 384Kbps
2: Dolby E-AC3 48000Hz 5.1 640Kbps ()

:

General
Unique ID : 244221586074932190408657448844794740172 (0xB7BB5DD77306620DACC0D13D6A1B3DCC)
Complete name : D:\HD TV Series\Z. The Beginning of Everything (WEBRip l 720p l Jaskier)\Z.The.Beginning.of.Everything.S01E01.Pilot.720p.WEBRip.x264-Jaskier.mkv
Format : Matroska
Format version : Version 2
File size : 1.77 GiB
Duration : 28mn 3s
Overall bit rate : 9 013 Kbps
Encoded date : UTC 2017-01-31 02:13:00
Writing application : mkvmerge v5.4.0 ('Piper') built on Mar 10 2012 13:34:39
Writing library : libebml v1.2.3 + libmatroska v1.3.0
Video
ID : 1
Format : AVC
Format/Info : Advanced Video Codec
Format profile : High@L4.1
Format settings, CABAC : Yes
Format settings, ReFrames : 9 frames
Codec ID : V_MPEG4/ISO/AVC
Duration : 28mn 3s
Bit rate : 7 809 Kbps
Width : 1 280 pixels
Height : 720 pixels
Display aspect ratio : 16:9
Frame rate mode : Constant
Frame rate : 23.976 fps
Color space : YUV
Chroma subsampling : 4:2:0
Bit depth : 8 bits
Scan type : Progressive
Bits/(Pixel*Frame) : 0.353
Stream size : 1.53 GiB (87%)
Writing library : x264 core 148 r2744+8 b97ae06 / tmod bb0ae40 X86_64
Encoding settings : cabac=1 / ref=9 / deblock=1:-3:-3 / analyse=0x3:0x113 / me=umh / subme=10 / psy=1 / fade_compensate=0.00 / psy_rd=1.05:0.15 / mixed_ref=1 / me_range=48 / chroma_me=1 / trellis=2 / 8x8dct=1 / cqm=0 / deadzone=21,11 / fast_pskip=0 / chroma_qp_offset=-3 / threads=22 / lookahead_threads=3 / sliced_threads=0 / nr=0 / decimate=0 / interlaced=0 / bluray_compat=0 / constrained_intra=0 / fgo=0 / bframes=9 / b_pyramid=2 / b_adapt=2 / b_bias=0 / direct=3 / weightb=1 / open_gop=0 / weightp=2 / keyint=250 / keyint_min=23 / scenecut=40 / intra_refresh=0 / rc=crf / mbtree=0 / crf=18.0000 / qcomp=0.70 / qpmin=0:0:0 / qpmax=69:69:69 / qpstep=4 / ip_ratio=1.40 / pb_ratio=1.30 / aq=3:0.85 / aq-sensitivity=10.00 / aq-factor=1.00:1.00:1.00 / aq2=0 / aq3=0
Language : English
Default : Yes
Forced : No
Audio #1
ID : 2
Format : AC-3
Format/Info : Audio Coding 3
Mode extension : CM (complete main)
Format settings, Endianness : Big
Codec ID : A_AC3
Duration : 28mn 3s
Bit rate mode : Constant
Bit rate : 384 Kbps
Channel(s) : 6 channels
Channel positions : Front: L C R, Side: L R, LFE
Sampling rate : 48.0 KHz
Compression mode : Lossy
Stream size : 77.1 MiB (4%)
Language : Russian
Default : Yes
Forced : No
Audio #2
ID : 3
Format : E-AC-3
Format/Info : Audio Coding 3
Format settings, Endianness : Big
Codec ID : A_EAC3
Duration : 28mn 3s
Bit rate mode : Constant
Bit rate : 640 Kbps
Channel(s) : 6 channels
Channel positions : Front: L C R, Side: L R, LFE
Sampling rate : 48.0 KHz
Compression mode : Lossy
Stream size : 128 MiB (7%)
Language : English
Default : No
Forced : No
Text
ID : 4
Format : UTF-8
Codec ID : S_TEXT/UTF8
Codec ID/Info : UTF-8 Plain Text
Title : English
Language : English
Default : No
Forced : No
! ; . , :
.
( ).
, .
() ( - ), . , !
E , , . , , .



...Z.The.Beginning.of.Everything.(.01).(....).[2017..WEBRip].[720p].[MVO].(Jaskier).+.[Original].torrent
  ! ! 
:   [ : ] c?
MAGNET
MAGNET


.torrent

48 KB

: DHT
: - 11 , - 1
: 18,46 GB
- (: 0)
: 1
:
 FacebookTwitterLivejournal Liveinternet
 

 
: