Loading...
Error

/ Powerless ( 01) ( ) [2017, , WEBRip] [720p] [MVO] (Jaskier) + [Orig]

11,38 GB   |    :  28
1  [  0 KB/s  ]  
 
 
 

leon030982

[] 

/ Powerless

: 2017
:
:
: 1 ~00:20:00
: ( ) Jaskier
: ()

:

: , , , .

: , ! , , , , . ! - , . , , , , . , , ! !


: WEBRip 720p
: MKV
: AVC
: AC3, E-AC3
: 1280x720 (16:9), 23.976 fps, ~6300kbps, ~0.288 bit/pixel
1: Dolby AC3 48000Hz 5.1 384Kbps
2: Dolby E-AC3 48000Hz 5.1 640Kbps ()

! 7-12-

:

General
Unique ID : 221263220117957996310557335459856339625 (0xA675BF01D473E448BC495E96980F52A9)
Complete name : D:\HD TV Series\Powerless. Season 1 (WEBRip l 720p l Jaskier)\Powerless.S01E01.Wayne.or.Lose.720p.AMZN.WEBRip.DD+5.1.x264-Jaskier.mkv
Format : Matroska
Format version : Version 2
File size : 1.16 GiB
Duration : 21mn 59s
Overall bit rate : 7 544 Kbps
Encoded date : UTC 2017-02-04 17:28:20
Writing application : mkvmerge v5.4.0 ('Piper') built on Mar 10 2012 13:34:39
Writing library : libebml v1.2.3 + libmatroska v1.3.0
Encoded/Released by : o
Group : ViSUM
Video
ID : 1
Format : AVC
Format/Info : Advanced Video Codec
Format profile : High@L4.1
Format settings, CABAC : Yes
Format settings, ReFrames : 4 frames
Codec ID : V_MPEG4/ISO/AVC
Duration : 21mn 59s
Bit rate : 6 370 Kbps
Width : 1 280 pixels
Height : 720 pixels
Display aspect ratio : 16:9
Frame rate mode : Constant
Frame rate : 23.976 fps
Color space : YUV
Chroma subsampling : 4:2:0
Bit depth : 8 bits
Scan type : Progressive
Bits/(Pixel*Frame) : 0.288
Stream size : 1 002 MiB (84%)
Writing library : x264 core 148 r2638 7599210
Encoding settings : cabac=1 / ref=4 / deblock=1:-3:-3 / analyse=0x3:0x133 / me=umh / subme=10 / psy=1 / psy_rd=1.00:0.00 / mixed_ref=1 / me_range=48 / chroma_me=1 / trellis=2 / 8x8dct=1 / cqm=0 / deadzone=21,11 / fast_pskip=1 / chroma_qp_offset=-2 / threads=22 / lookahead_threads=3 / sliced_threads=0 / nr=0 / decimate=0 / interlaced=0 / bluray_compat=0 / constrained_intra=0 / bframes=8 / b_pyramid=2 / b_adapt=2 / b_bias=0 / direct=3 / weightb=1 / open_gop=0 / weightp=2 / keyint=240 / keyint_min=23 / scenecut=40 / intra_refresh=0 / rc=crf / mbtree=0 / crf=16.0 / qcomp=0.60 / qpmin=0 / qpmax=69 / qpstep=4 / ip_ratio=1.30 / pb_ratio=1.20 / aq=1:0.70
Language : Russian
Default : Yes
Forced : No
Audio #1
ID : 2
Format : AC-3
Format/Info : Audio Coding 3
Mode extension : CM (complete main)
Format settings, Endianness : Big
Codec ID : A_AC3
Duration : 21mn 59s
Bit rate mode : Constant
Bit rate : 384 Kbps
Channel(s) : 6 channels
Channel positions : Front: L C R, Side: L R, LFE
Sampling rate : 48.0 KHz
Compression mode : Lossy
Stream size : 60.4 MiB (5%)
Language : Russian
Default : Yes
Forced : No
Audio #2
ID : 3
Format : E-AC-3
Format/Info : Audio Coding 3
Format settings, Endianness : Big
Codec ID : A_EAC3
Duration : 21mn 59s
Bit rate mode : Constant
Bit rate : 640 Kbps
Channel(s) : 6 channels
Channel positions : Front: L C R, Side: L R, LFE
Sampling rate : 48.0 KHz
Compression mode : Lossy
Stream size : 101 MiB (8%)
Language : English
Default : No
Forced : No
Text
ID : 4
Format : UTF-8
Codec ID : S_TEXT/UTF8
Codec ID/Info : UTF-8 Plain Text
Language : English
Default : Yes
Forced : No
! ; . , :
.
( ).
, .
() ( - ), . , !
E , , . , , .




.Powerless.(.01).(..).[2017..WEBRip].[720p].[MVO].(Jaskier).+.[Orig].torrent
  ! ! 
:   [ : ] c?
MAGNET
MAGNET


.torrent

30 KB

: DHT
: - 28 , - 13
: 11,38 GB
- (: 0)
: 0
:
 FacebookTwitterLivejournal Liveinternet
 

 
: