Loading...
Error

Скачать Бессильные / Powerless (Сезон 01) (Майкл Патрик Джэнн) [2017, Комедия, WEBRip] [MVO] (Jaskier) + [Orig] торрент без регистрации

Статистика раздачи
Размер:  3,29 GB   |    Скачан:  37 раз
Сидов:  6  [  0 KB/s  ]   Личеров:  2  [  0 KB/s  ]  
 
 
 
Автор Сообщение

leon030982

[] 


Бессильные | Powerless


Год выпуска: 2017
Страна: США
Жанр: Комедия
Продолжительность: 1x ~ 00:20:00
Перевод: Профессиональный (многоголосый закадровый) | Jaskier

Режиссёр: Майкл Патрик Джэнн

В ролях: Ванесса Энн Хадженс, Эйтлин Митчелл, Дэнни Пуди, Алан Тьюдик, Марк Брэндон, Антонио Кайонни, Грэм Даффи, Джош Фэйдем, Рон Фанчес и др.

Описание: Добро пожаловать в удивительный мир, который совершенно отличается от нашего! Кто бы мог подумать, что, если у нас встречаешь человека со сверхъестественными способностями, который борется со злом, то невольно называешь его супергероем. В этом же альтернативном мире супергерои есть везде! А вот простых людей без особых умений - раз, два и обчелся. Этот мир не похож на нас, а людей, которые ничего не умеют, берегут, как редкий вид животных в заповеднике. Однако главная героиня сериала по имени Эмили понимает, что можно стать супергероем, даже если ты не наделен суперсилами! Достаточно просто иметь большое и доброе сердце!


Качество: WEBRip
Формат: AVI
Видео: XviD, ~ 1500 kbps, 720x400 (16:9), 23,976 fps
Аудио 1: MP3, 48,0 КГц, 2 ch, 128 kbps - Rus
Аудио 2: MP3, 48,0 КГц, 2 ch, 128 kbps - Eng
Субтитры: отсутствуют

Торент обновлен! Добавлена 7-12-я серия
Перевод и озвучивание Студия Jaskier

Код:

Общее
Полное имя                               : D:\загрузки\Powerless (Season 01) Jaskier\Powerless.S01E01.WEBRip.Rus.Eng.Jaskier.avi
Формат                                   : AVI
Формат/Информация                        : Audio Video Interleave
Размер файла                             : 280 Мбайт
Продолжительность                        : 21 м. 59 с.
Общий поток                              : 1783 Кбит/сек
Программа кодирования                    : VirtualDubMod 1.5.10.3 | www.virtualdub-fr.org || (build 2550/release)
Библиотека кодирования                   : VirtualDubMod build 2550/release
Видео
Идентификатор                            : 0
Формат                                   : MPEG-4 Visual
Профиль формата                          : Advanced Simple@L5
Параметр BVOP формата                    : 1
Параметр QPel формата                    : Нет
Параметр GMC формата                     : Без точки перехода
Параметр матрицы формата                 : Default (MPEG)
Идентификатор кодека                     : XVID
Идентификатор кодека/Подсказка           : XviD
Продолжительность                        : 21 м. 59 с.
Битрейт                                  : 1513 Кбит/сек
Ширина                                   : 720 пикселей
Высота                                   : 400 пикселей
Соотношение сторон                       : 16:9
Частота кадров                           : 23,976 (24000/1001) кадра/сек
Цветовое пространство                    : YUV
Субдискретизация насыщенности            : 4:2:0
Битовая глубина                          : 8 бит
Тип развёртки                            : Прогрессивная
Метод сжатия                             : С потерями
Бит/(Пиксели*Кадры)                      : 0.219
Размер потока                            : 238 Мбайт (85%)
Библиотека кодирования                   : XviD 73
Аудио #1
Идентификатор                            : 1
Формат                                   : MPEG Audio
Версия формата                           : Version 1
Профиль формата                          : Layer 3
Режим                                    : Joint stereo
Идентификатор кодека                     : 55
Идентификатор кодека/Подсказка           : MP3
Продолжительность                        : 21 м. 59 с.
Вид битрейта                             : Постоянный
Битрейт                                  : 128 Кбит/сек
Каналы                                   : 2 канала
Частота                                  : 48,0 КГц
Метод сжатия                             : С потерями
Размер потока                            : 20,1 Мбайт (7%)
Выравнивание                             : Соединение по промежуткам
Продолжительность промежутка             : 42  мс. (1,00 видеокадр)
Время предзагрузки промежутка            : 504  мс.
Аудио #2
Идентификатор                            : 2
Формат                                   : MPEG Audio
Версия формата                           : Version 1
Профиль формата                          : Layer 3
Режим                                    : Joint stereo
Идентификатор кодека                     : 55
Идентификатор кодека/Подсказка           : MP3
Продолжительность                        : 21 м. 59 с.
Вид битрейта                             : Постоянный
Битрейт                                  : 128 Кбит/сек
Каналы                                   : 2 канала
Частота                                  : 48,0 КГц
Метод сжатия                             : С потерями
Размер потока                            : 20,1 Мбайт (7%)
Выравнивание                             : Соединение по промежуткам
Продолжительность промежутка             : 42  мс. (1,00 видеокадр)
Время предзагрузки промежутка            : 504  мс.
Когда раздача ведётся путём добавления новых серий, при каждом добавлении создётся новый торрент. Чтобы начать докачку новой серии, пользователям необходимо сделать следующее:
(1) остановить скачивание,
(2) удалить старый торрент у себя из клиента (старые серии удалять не надо),
(3) скачать новый торрент и запустить его у себя в клиенте вместо старого, при этом указать клиенту путь в старую папку, куда и должно происходить скачивание новых серий.
Ваш клиент при этом должен произвести хеширование (проверку) старой папки (если не производит сам - помогите ему сделать это), и будет докачивать только те серии, которых у вас ещё нет. Старые серии при этом не удаляются, а продолжают раздаваться!
Eсли вы уже удалили старые серии, то предотвратить повторную закачку старых серий можно, отжав галочку в соответсвующих местах при запуске нового торрента. По возможности, желательно не удалять старые серии как можно дольше, чтобы релизёр не столько продолжал раздавать старые серии, а смог сконцентрироваться на новых.




Скачать Бессильные.Powerless.(Сезон.01).(Майкл.Патрик.Джэнн).[2017.Комедия.WEBRip].[MVO].(Jaskier).+.[Orig].torrent без регистрации
Золото ЗОЛОТАЯ РАЗДАЧА! СКАЧАННОЕ НЕ ЗАСЧИТЫВАЕТСЯ! Золото
Дата: Зарегистрирован   [ Тип: внешний ] Как тут cкачать?
MAGNET ссылка
MAGNET ссылка


Скачать .torrent

18 KB

Статус: проверено DHT
Скачан: торрент - 37 раз, раздача полностью - 49 раз
Размер: 3,29 GB
Оценка:  - (Голосов: 0)
Поблагодарили: 1
Поделиться ссылкой на эту раздачу с друзьями:
В контактеFacebookОдноклассникиTwitterLivejournalМой МирLiveinternet
 

 
Показать сообщения:    


Вы не можете начинать темы
Вы не можете отвечать на сообщения
Вы не можете редактировать свои сообщения
Вы не можете удалять свои сообщения
Вы не можете голосовать в опросах
Вы не можете прикреплять файлы к сообщениям
Вы можете скачивать файлы