Loading...
Error

Скачать Куба (01-24 из 24) (Алексей Гусев и др.) [2017, боевик, детектив, криминальный фильм, HDTVRip-AVC] торрент без регистрации

Статистика раздачи
Размер:  15,17 GB   |    Скачан:  50 раз
Сидов:  1  [  0 KB/s  ]  

 
 
 
Автор Сообщение

МихаНЕзатор

[] 

Куба

Эпизод с 1 по 24 (из 24)



Год выпуска: 2016
Страна: Россия
Производство: Продюсерский центр Сергея Жигунова
Жанр: Детектив
Режиссёр: Алексей Гусев, Андрей Щербинин, Роман Ярославцев

В ролях: Алексей Макаров, Александр Лыков, Екатерина Кузнецова, Юлия Такшина, Екатерина Никитина, Дмитрий Лабуш, Елена Дубровская, Валерия Крючкова, Татьяна Чердынцева, Сергей Гарусов, Олег Метелев, Александр Гелейша, Алёша Шаблюк, Елена Мартыненко, Александр Мосолов, Юрий Елагин, Сергей Сафронов, Оксана Базилевич, Михаил Скачков, Анатолий Котенёв, Виктор Рыбчинский, Даниил Кокин

Описание: Действие истории разворачивается в подмосковном Среднереченске, где капитан Андрей Кубанков (Алексей Макаров) по прозвищу Куба пытается начать жизнь с чистого листа. Не так давно он служил в разведке в мотострелковом полку, но его уволили за драку с командиром, который увёл у Кубы жену. Приехав в родные края, Андрей долгое время топил горе в алкоголе, пока не встретил Эрику (Екатерина Кузнецова). Но девушку, которая изменила его жизнь, внезапно похищают. Кубе приходится вспоминать навыки боевого разведчика, чтобы спасти любимую. Вместе с братом Эрики влиятельным бизнесменом Алексеем Одинцовым (Александр Лыков) Куба находит злоумышленников. После этого случая Кубу приглашают на службу в уголовный розыск местного РОВД. Он не изменяет принципам бывшего военного, при любых обстоятельствах остаётся честным, несгибаемым и справедливым. Его привлекают к расследованию запутанных и резонансных дел. Когда Куба выходит на след главного заказчика всех преступлений в Среднереченске, перед ним встанет тяжёлый выбор: оставить всё на своих местах, обеспечив безопасность себе и близким, или во что бы то ни стало наказать злоумышленника.



Продолжительность: 6 х 00:45:00
Перевод: Не требуется
Субтитры: Нет
Реклама: Отсутствует

Качество: HDTVRip-AVC
Формат: MKV
Видео кодек: MPEG-4 AVC
Аудио кодек: АС3
Свойства видео: 1024x576 (16:9), 25 fps, MPEG-4 AVC ~1 877 kbps avg, 0.122 bit/pixel
Свойства аудио: 48 KHz, AC3, 2 ch, ~192.00 kbps avg


АНОНСЫ ПОПУЛЯРНЫХ РАЗДАЧ


Торрент обновлён, добавлена 24-я серия!

Общее
Уникальный идентификатор : 253173394160927697769632263603998966865 (0xBE776C0E54A54B04BB6A4B6E54C84451)
Полное имя : D:Kuba.2016.HDTVRip(AVC).ExKinoRayKuba.(01.seriya).2016.HDTVRip(AVC).ExKinoRay.mkv
Формат : Matroska
Версия формата : Version 2
Размер файла : 647 Мбайт
Продолжительность : 43 м. 42 с.
Общий поток : 2071 Кбит/сек
Дата кодирования : UTC 2017-02-07 06:26:09
Программа кодирования : mkvmerge v7.8.0 ('River Man') 32bit built on Apr 3 2015 12:11:22
Библиотека кодирования : libebml v1.3.1 + libmatroska v1.4.2

Видео
Идентификатор : 1
Формат : AVC
Формат/Информация : Advanced Video Codec
Профиль формата : High@L4.1
Параметр CABAC формата : Да
Параметр ReFrames формата : 10 кадров
Идентификатор кодека : V_MPEG4/ISO/AVC
Продолжительность : 43 м. 42 с.
Битрейт : 1877 Кбит/сек
Ширина : 1024 пикселя
Высота : 576 пикселей
Соотношение сторон : 16:9
Режим частоты кадров : Постоянный
Частота кадров : 25,000 кадров/сек
Цветовое пространство : YUV
Субдискретизация насыщенности : 4:2:0
Битовая глубина : 8 бит
Тип развёртки : Прогрессивная
Бит/(Пиксели*Кадры) : 0.127
Размер потока : 574 Мбайт (89%)
Библиотека кодирования : x264 core 146 r2538 121396c
Настройки программы : cabac=1 / ref=10 / deblock=1:-3:-3 / analyse=0x3:0x133 / me=umh / subme=10 / psy=1 / psy_rd=0.00:0.03 / mixed_ref=1 / me_range=48 / chroma_me=1 / trellis=2 / 8x8dct=1 / cqm=0 / deadzone=21,11 / fast_pskip=0 / chroma_qp_offset=-1 / threads=6 / lookahead_threads=1 / sliced_threads=0 / nr=0 / decimate=0 / interlaced=0 / bluray_compat=0 / constrained_intra=0 / bframes=10 / b_pyramid=2 / b_adapt=2 / b_bias=0 / direct=3 / weightb=1 / open_gop=0 / weightp=2 / keyint=250 / keyint_min=25 / scenecut=40 / intra_refresh=0 / rc_lookahead=40 / rc=2pass / mbtree=0 / bitrate=1877 / ratetol=1.0 / qcomp=0.60 / qpmin=0 / qpmax=69 / qpstep=4 / cplxblur=20.0 / qblur=0.5 / vbv_maxrate=50000 / vbv_bufsize=62500 / nal_hrd=none / filler=0 / ip_ratio=1.40 / pb_ratio=1.30 / aq=1:1.00
Default : Да
Forced : Нет

Аудио
Идентификатор : 2
Формат : AC-3
Формат/Информация : Audio Coding 3
Расширение режима : CM (complete main)
Параметр Endianness формата : Big
Идентификатор кодека : A_AC3
Продолжительность : 43 м. 42 с.
Вид битрейта : Постоянный
Битрейт : 192 Кбит/сек
Каналы : 2 канала
Расположение каналов : Front: L R
Частота : 48,0 КГц
Частота кадров : 31,250 кадров/сек (1536 spf)
Битовая глубина : 16 бит
Метод сжатия : С потерями
Размер потока : 60,0 Мбайт (9%)
Default : Да
Forced : Нет




Скачать Куба.(01-24.из.24).(Алексей.Гусев.и.др.).[2017.боевик.детектив.криминальный.фильм.HDTVRip-AVC].torrent без регистрации
Золото ЗОЛОТАЯ РАЗДАЧА! СКАЧАННОЕ НЕ ЗАСЧИТЫВАЕТСЯ! Золото
Дата: Зарегистрирован   [ Тип: внутренний ] Как тут cкачать?
MAGNET ссылка
MAGNET ссылка


Скачать .torrent

79 KB

Статус: проверено DHT
Скачан: торрент - 50 раз, раздача полностью - 26 раз
Размер: 15,17 GB
Оценка:  4 (Голосов: 1)
Поблагодарили: 2
Поделиться ссылкой на эту раздачу с друзьями:
В контактеFacebookОдноклассникиTwitterLivejournalМой МирLiveinternet
 

 
Показать сообщения:    


Вы не можете начинать темы
Вы не можете отвечать на сообщения
Вы не можете редактировать свои сообщения
Вы не можете удалять свои сообщения
Вы не можете голосовать в опросах
Вы не можете прикреплять файлы к сообщениям
Вы можете скачивать файлы