Loading...
Error

Скачать Мамочки (сезон 03) (Валерия Ивановская, Александр Богданенко) [2017, ситком, комедия, WEB-DLRip-AVC] торрент без регистрации

Статистика раздачи
Размер:  6,83 GB   |    Скачан:  52 раза
Сидов:  1  [  0 KB/s  ]  
 
 
 
Автор Сообщение

МихаНЕзатор

[] 

Мамочки

Эпизод с 1 по 20 (из 20)



Год выпуска: 2017
Страна: Россия
Производство: Yellow, Black & White, «Систерз продакшн»
Жанр: Комедия
Режиссёр: Валерия Ивановская, Александр Богданенко

В ролях: Елена Николаева (II), Александра Булычёва, Светлана Колпакова, Сергей Лавыгин, Владимир Жеребцов, Юлиана Бажанова, Виктор Добронравов, Ксения Зуева, Анна Потебня, Константин Соловьёв, Дмитрий Мазуров, Денис Жариков, Александр Ратников, Артём Падалка, Роман Полянский, Всеволод Макаров, Юлия Подозёрова, Антонина Комиссарова, Макс Бирюков, Вадим Норштейн, Анжелика Каширина, Александр Присмотров-Белов

Описание: Сериал о трёх подругах и о том, как резко меняется жизнь после тридцати, когда на смену ночным вечеринкам приходят подгузники. Аня — новоиспечённая мама десятимесячного сына, которая только начинает сталкиваться с проблемами материнства и супружеской жизни. Иногда, кажется, что если бы не советы подруг, она бы сошла с ума от беспомощности. Юля — мама со стажем. Мать троих детей, которую настолько сильно поглощает семейный быт, что на себя давно нет ни сил, ни времени. Считает, что знает абсолютно всё о детях, мужчинах и отношениях. Вика — одинокая девушка «в поиске».



Продолжительность: 5 х 00:25:00
Перевод: Не требуется
Субтитры: Нет
Реклама: Отсутствует

Качество: WEB-DLRip-AVC
Формат: MKV
Видео кодек: MPEG-4 AVC
Аудио кодек: АС3
Свойства видео: 1024x576 (16:9), 25 fps, MPEG-4 AVC ~1 745 kbps avg, 0.122 bit/pixel
Свойства аудио: 48 KHz, AC3, 2 ch, ~192.00 kbps avg


АНОНСЫ ПОПУЛЯРНЫХ РАЗДАЧ


Торрент обновлён, добавлена 20-я серия!

Общее
Уникальный идентификатор : 217338209134498040112996998586186482223 (0xA381D10659EC1FA3B6F12C9971F6422F)
Полное имя : D:Mamochki.2017.s03.e01.WEB-DLip(AVC).ExKinoRay.mkv
Формат : Matroska
Версия формата : Version 2
Размер файла : 347 Мбайт
Продолжительность : 25 м. 4 с.
Общий поток : 1937 Кбит/сек
Дата кодирования : UTC 2017-02-06 20:45:42
Программа кодирования : mkvmerge v7.8.0 ('River Man') 32bit built on Apr 3 2015 12:11:22
Библиотека кодирования : libebml v1.3.1 + libmatroska v1.4.2

Видео
Идентификатор : 1
Формат : AVC
Формат/Информация : Advanced Video Codec
Профиль формата : High@L4.1
Параметр CABAC формата : Да
Параметр ReFrames формата : 10 кадров
Идентификатор кодека : V_MPEG4/ISO/AVC
Продолжительность : 25 м. 4 с.
Битрейт : 1745 Кбит/сек
Ширина : 1024 пикселя
Высота : 576 пикселей
Соотношение сторон : 16:9
Режим частоты кадров : Постоянный
Частота кадров : 25,000 кадров/сек
Цветовое пространство : YUV
Субдискретизация насыщенности : 4:2:0
Битовая глубина : 8 бит
Тип развёртки : Прогрессивная
Бит/(Пиксели*Кадры) : 0.118
Размер потока : 306 Мбайт (88%)
Библиотека кодирования : x264 core 146 r2538 121396c
Настройки программы : cabac=1 / ref=10 / deblock=1:-3:-3 / analyse=0x3:0x133 / me=umh / subme=10 / psy=1 / psy_rd=0.00:0.03 / mixed_ref=1 / me_range=48 / chroma_me=1 / trellis=2 / 8x8dct=1 / cqm=0 / deadzone=21,11 / fast_pskip=0 / chroma_qp_offset=-1 / threads=6 / lookahead_threads=1 / sliced_threads=0 / nr=0 / decimate=0 / interlaced=0 / bluray_compat=0 / constrained_intra=0 / bframes=10 / b_pyramid=2 / b_adapt=2 / b_bias=0 / direct=3 / weightb=1 / open_gop=0 / weightp=2 / keyint=250 / keyint_min=25 / scenecut=40 / intra_refresh=0 / rc_lookahead=40 / rc=2pass / mbtree=0 / bitrate=1745 / ratetol=1.0 / qcomp=0.60 / qpmin=0 / qpmax=69 / qpstep=4 / cplxblur=20.0 / qblur=0.5 / vbv_maxrate=50000 / vbv_bufsize=62500 / nal_hrd=none / filler=0 / ip_ratio=1.40 / pb_ratio=1.30 / aq=1:1.00
Default : Да
Forced : Нет

Аудио
Идентификатор : 2
Формат : AC-3
Формат/Информация : Audio Coding 3
Расширение режима : CM (complete main)
Параметр Endianness формата : Big
Идентификатор кодека : A_AC3
Продолжительность : 25 м. 4 с.
Вид битрейта : Постоянный
Битрейт : 192 Кбит/сек
Каналы : 2 канала
Расположение каналов : Front: L R
Частота : 48,0 КГц
Частота кадров : 31,250 кадров/сек (1536 spf)
Битовая глубина : 16 бит
Метод сжатия : С потерями
Размер потока : 34,4 Мбайт (10%)
Default : Да
Forced : Нет




Скачать Мамочки.(сезон.03).(Валерия.Ивановская.Александр.Богданенко).[2017.ситком.комедия.WEB-DLRip-AVC].torrent без регистрации
Золото ЗОЛОТАЯ РАЗДАЧА! СКАЧАННОЕ НЕ ЗАСЧИТЫВАЕТСЯ! Золото
Дата: Зарегистрирован   [ Тип: внутренний ] Как тут cкачать?
MAGNET ссылка
MAGNET ссылка


Скачать .torrent

37 KB

Статус: проверено DHT
Скачан: торрент - 52 раз, раздача полностью - 11 раз
Размер: 6,83 GB
Оценка:  - (Голосов: 0)
Поблагодарили: 1
Поделиться ссылкой на эту раздачу с друзьями:
В контактеFacebookОдноклассникиTwitterLivejournalМой МирLiveinternet
 

 
Показать сообщения:    


Вы не можете начинать темы
Вы не можете отвечать на сообщения
Вы не можете редактировать свои сообщения
Вы не можете удалять свои сообщения
Вы не можете голосовать в опросах
Вы не можете прикреплять файлы к сообщениям
Вы можете скачивать файлы