Loading...
Error

Скачать Осиное гнездо (01-16 из 16) (Сергей Лялин) [2017, мелодрама, WEB-DLRip-AVC] торрент без регистрации

Статистика раздачи
Размер:  12,41 GB   |    Скачан:  25 раз
Сидов:  1  [  0 KB/s  ]  

 
 
 
Автор Сообщение

МихаНЕзатор

[] 

Осиное гнездо

Эпизод с 1 по 16 (из 16)



Год выпуска: 2017
Страна: Россия
Производство: Кинокомпания Русское
Жанр: Комедия
Режиссёр: Сергей Лялин

В ролях: Мария Куликова, Евгения Симонова, Ирина Антоненко, Ксения Лукьянчикова, Елизавета Арзамасова, Андрей Чернышов, Юрий Батурин, Игорь Несветаев, Илья Алексеев, Евгений Сидихин

Описание: В семье Мальцевых одни женщины: бабушка Елизавета Андреевна, ее дочь Кира и три ее дочки: двойняшки Ксения и Вероника, и младшая - Лера. Они живут в большом доме, который им оставил в наследство отец Елизаветы Андреевны. Кира родила девочек вне брака и с тех пор, как окончила медицинский институт, работала днями и ночами, чтобы всех прокормить. Кира все контролировала в доме, но однажды все взбунтовались. Студентка юридического института Лера завела роман с бывшим любовником Киры. Актриса Вероника вскрыла вены от того, что ее соблазнил, да еще и посмеялся над ней кинорежиссер. Художник Ксения сорвала выгодный заказ – нарисовала жену важного чиновника так, как она выглядела на самом деле, вместо того, чтобы изобразить ее красавицей. Елизавета Андреевна ушла из дома, оставив завещание, по которому все ее имущество переходит к неизвестной Лие Аркадьевне Гуревич. Еще в завещании упомянута картина Ван Гога, бабушка ее отписала музею. Про картину в доме никто не знал. Все поражены. Бабушка вернулась, но тайн своих не раскрыла. А за картиной начал охоту жених Леры Максим. Он ведет двойную жизнь. Представляется директором арт-центра, но главный источник его доходов - «модельное агентство», поставляющее девушек в зарубежные бордели. Максим привык жить на широкую ногу, он делает долги, ему угрожают, и он хочет выкрасть и продать Ван Гога. Ради своей цели Беляев готов на все…



Продолжительность: 10 х 00:50:00
Перевод: Не требуется
Субтитры: Нет
Реклама: Отсутствует

Качество: WEB-DLRip-AVC
Формат: MKV
Видео кодек: MPEG-4 AVC
Аудио кодек: АС3
Свойства видео: 1024x576 (16:9), 25 fps, MPEG-4 AVC ~1 800 kbps avg, 0.122 bit/pixel
Свойства аудио: 48 KHz, AC3, 2 ch, ~192.00 kbps avg


АНОНСЫ ПОПУЛЯРНЫХ РАЗДАЧ


Торрент обновлён, добавлена 16-я серия!

Общее
Уникальный идентификатор : 242682369317040559160691427619526882907 (0xB692EC98A661B2BCA60FBA121FAB365B)
Полное имя : D:Osinoe.Gnezdo.2017.WEB-DLRip(AVC).ExKinoRay1.Osinoe.Gnezdo.2017.WEB-DLRip(AVC).ExKinoRay.mkv
Формат : Matroska
Версия формата : Version 2
Размер файла : 801 Мбайт
Продолжительность : 56 м. 10 с.
Общий поток : 1994 Кбит/сек
Дата кодирования : UTC 2017-02-10 15:29:17
Программа кодирования : mkvmerge v7.8.0 ('River Man') 32bit built on Apr 3 2015 12:11:22
Библиотека кодирования : libebml v1.3.1 + libmatroska v1.4.2

Видео
Идентификатор : 1
Формат : AVC
Формат/Информация : Advanced Video Codec
Профиль формата : High@L4.1
Параметр CABAC формата : Да
Параметр ReFrames формата : 10 кадров
Идентификатор кодека : V_MPEG4/ISO/AVC
Продолжительность : 56 м. 10 с.
Битрейт : 1800 Кбит/сек
Ширина : 1024 пикселя
Высота : 576 пикселей
Соотношение сторон : 16:9
Режим частоты кадров : Постоянный
Частота кадров : 25,000 кадров/сек
Цветовое пространство : YUV
Субдискретизация насыщенности : 4:2:0
Битовая глубина : 8 бит
Тип развёртки : Прогрессивная
Бит/(Пиксели*Кадры) : 0.122
Размер потока : 708 Мбайт (88%)
Библиотека кодирования : x264 core 146 r2538 121396c
Настройки программы : cabac=1 / ref=10 / deblock=1:-3:-3 / analyse=0x3:0x133 / me=umh / subme=10 / psy=1 / psy_rd=0.00:0.03 / mixed_ref=1 / me_range=48 / chroma_me=1 / trellis=2 / 8x8dct=1 / cqm=0 / deadzone=21,11 / fast_pskip=0 / chroma_qp_offset=-1 / threads=6 / lookahead_threads=1 / sliced_threads=0 / nr=0 / decimate=0 / interlaced=0 / bluray_compat=0 / constrained_intra=0 / bframes=10 / b_pyramid=2 / b_adapt=2 / b_bias=0 / direct=3 / weightb=1 / open_gop=0 / weightp=2 / keyint=250 / keyint_min=25 / scenecut=40 / intra_refresh=0 / rc_lookahead=40 / rc=2pass / mbtree=0 / bitrate=1800 / ratetol=1.0 / qcomp=0.60 / qpmin=0 / qpmax=69 / qpstep=4 / cplxblur=20.0 / qblur=0.5 / vbv_maxrate=50000 / vbv_bufsize=62500 / nal_hrd=none / filler=0 / ip_ratio=1.40 / pb_ratio=1.30 / aq=1:1.00
Default : Да
Forced : Нет

Аудио
Идентификатор : 2
Формат : AC-3
Формат/Информация : Audio Coding 3
Расширение режима : CM (complete main)
Параметр Endianness формата : Big
Идентификатор кодека : A_AC3
Продолжительность : 56 м. 10 с.
Вид битрейта : Постоянный
Битрейт : 192 Кбит/сек
Каналы : 2 канала
Расположение каналов : Front: L R
Частота : 48,0 КГц
Частота кадров : 31,250 кадров/сек (1536 spf)
Битовая глубина : 16 бит
Метод сжатия : С потерями
Размер потока : 77,1 Мбайт (10%)
Default : Да
Forced : Нет




Скачать Осиное.гнездо.(01-16.из.16).(Сергей.Лялин).[2017.мелодрама.WEB-DLRip-AVC].torrent без регистрации
Золото ЗОЛОТАЯ РАЗДАЧА! СКАЧАННОЕ НЕ ЗАСЧИТЫВАЕТСЯ! Золото
Дата: Зарегистрирован   [ Тип: внутренний ] Как тут cкачать?
MAGNET ссылка
MAGNET ссылка


Скачать .torrent

64 KB

Статус: проверено DHT
Скачан: торрент - 25 раз, раздача полностью - 9 раз
Размер: 12,41 GB
Оценка:  - (Голосов: 0)
Поблагодарили: 0
Поделиться ссылкой на эту раздачу с друзьями:
В контактеFacebookОдноклассникиTwitterLivejournalМой МирLiveinternet
 

 
Показать сообщения:    


Вы не можете начинать темы
Вы не можете отвечать на сообщения
Вы не можете редактировать свои сообщения
Вы не можете удалять свои сообщения
Вы не можете голосовать в опросах
Вы не можете прикреплять файлы к сообщениям
Вы можете скачивать файлы