Loading...
Error

Скачать (Pop, R`n`B, Electropop) Bebe Rexha - I Got You [2017, WEBRip] [1080p] торрент без регистрации

Статистика раздачи
Размер:  225 MB   |    Скачан:  21 раз
Сидов:  1  [  0 KB/s  ]  
 
 
 
Автор Сообщение

Marsianka

[] 

Информация о фильме
Название: Bebe Rexha - I Got You
Год выхода: 2017
Жанр: Pop, R`n`B, Electropop

О раздаче:
Яркая и стильная Bebe Rexha не стала ждать лето и решила покорять слушателей своим новым танцевальным синглом I Got You уже в первых числах января 2017 года. Видео снято в лучших трендах последних лет.
Формат : MPEG-4
Профиль формата : QuickTime
Идентификатор кодека : qt 0000.00 (qt )
Размер файла : 225 Мбайт
Продолжительность : 3 м. 14 с.
Режим общего битрейта : Переменный
Общий поток : 9688 Кбит/сек
Библиотека кодирования : Apple QuickTime
©TIM : 00:00:00:00
©TSZ : 125
©TSC : 2997
Видео
Идентификатор : 2
Формат : AVC
Формат/Информация : Advanced Video Codec
Профиль формата : High@L4
Параметр CABAC формата : Да
Параметр ReFrames формата : 2 кадра
Параметр GOP формата : M=2, N=30
Идентификатор кодека : avc1
Идентификатор кодека/Информация : Advanced Video Coding
Продолжительность : 3 м. 14 с.
Вид битрейта : Переменный
Максимальный битрейт : 9432 Кбит/сек
Ширина : 1920 пикселей
Высота : 1080 пикселей
Соотношение сторон : 16:9
Режим частоты кадров : Постоянный
Частота кадров : 23,976 (24000/1001) кадра/сек
Частота кадров в оригинале : 25,000 кадров/сек
Цветовое пространство : YUV
Субдискретизация насыщенности : 4:2:0
Битовая глубина : 8 бит
Тип развёртки : Прогрессивная
Бит/(Пиксели*Кадры) : 0.190
Размер потока : 219 Мбайт (97%)
Заголовок : Core Media Video
Цветовой диапазон : Limited
Основные цвета : BT.709
Характеристики трансфера : BT.709
Коэффициенты матрицы : BT.709
Аудио
Идентификатор : 1
Формат : AAC
Формат/Информация : Advanced Audio Codec
Профиль формата : LC
Идентификатор кодека : 40
Продолжительность : 3 м. 14 с.
Продолжительность оригинала : 3 м. 14 с.
Вид битрейта : Постоянный
Битрейт : 256 Кбит/сек
Каналы : 2 канала
Расположение каналов : Front: L R
Частота : 48,0 КГц
Частота кадров : 46,875 кадров/сек (1024 spf)
Метод сжатия : С потерями
Размер потока : 5,85 Мбайт (3%)
Размер потока оригинала : 5,85 Мбайт (3%)
Заголовок : Core Media Audio
Продолжительность: 00:03:14

Файл
Кодек: MPEG-4, AVC
Качество: WEBRip 1080p
Видео: 1920 x 1080 (1.778) at 23.976 fps AVC at 9432 Кбит/сек
Звук: 2 канала, 48,0 КГц AAC at 256 Кбит/сек



Скачать Bebe.Rexha.-.I.Got.You.[2017.WEBRip].[1080p].torrent без регистрации
Золото ЗОЛОТАЯ РАЗДАЧА! СКАЧАННОЕ НЕ ЗАСЧИТЫВАЕТСЯ! Золото
Дата: Зарегистрирован   [ Тип: внутренний ] Как тут cкачать?
MAGNET ссылка
MAGNET ссылка


Скачать .torrent

18 KB

Статус: проверено DHT
Скачан: торрент - 21 раз, раздача полностью - 5 раз
Размер: 225 MB
Оценка:  - (Голосов: 0)
Поблагодарили: 0
Поделиться ссылкой на эту раздачу с друзьями:
В контактеFacebookОдноклассникиTwitterLivejournalМой МирLiveinternet
 

 
Показать сообщения:    


Вы не можете начинать темы
Вы не можете отвечать на сообщения
Вы не можете редактировать свои сообщения
Вы не можете удалять свои сообщения
Вы не можете голосовать в опросах
Вы не можете прикреплять файлы к сообщениям
Вы можете скачивать файлы