Loading...
Error

Скачать (Церемония Вручения Наград | Концерт) 59-я церемония вручения наград Грэмми / The 59th Grammy Awards 2017 [2017, HDTVRip] [720p] [DVO] торрент без регистрации

Статистика раздачи
Размер:  3,17 GB   |    Скачан:  12 раз
Сидов:  1  [  0 KB/s  ]  
 
 
 
Автор Сообщение

Marsianka

[] 

59-я Ежегодная Церемония Вручения Музыкальной Премии "Грэмми" / 59th Annual Grammy Awards 2017

Страна: США | CBS
Жанр: Церемония Вручения Наград | Концерт
Продолжительность: 1:43:21
Год выпуска: 2017
Озвучка: Профессиональная двухголосая закадровая (Алексей Мануйлов и Яна Чурикова)
Описание: 59-я ежегодная церемония вручения наград «Грэмми» состоялась 12 февраля 2017 года. Трансляция, как и ранее, прошла на телеканале CBS (по новому контракту вплоть до 2026 года). Летом 2016 года организаторы объявили о нескольких изменениях в процедуре выбора победителей и структуре некоторых категорий в области рэп, R&B и блюза. Ведущим церемонии впервые стал британский киноактер Джеймс Корден.
Автор рипа: lrn
Автор записи: kuzmichm2196
Сэмпл: sendfile
Тип релиза: HDTVRip 720p
Контейнер: MKV
Видео: 1280x720 (16:9), 25,000 fps, H264, ~4000 kbps avg, ~0.174 bit/pixel
Аудио: 48 kHz, AC3 Dolby Digital, 3/2 (L,C,R,l,r) + LFE ch, ~384.00 kbps avg
1. Adele - "Hello"
2. The Weeknd, Daft Punk - "Starboy" (intro) / "I Feel It Coming"
3. Keith Urban, Carrie Underwood - "The Fighter"
4. Ed Sheeran - "Shape of You"
5. Lukas Graham, Kelsea Ballerini - "7 Years" / "Peter Pan"
6. Beyoncé - "Love Drought" / "Sandcastles"
7. Bruno Mars - "That's What I Like"
8. Little Big Town - "Teenage Dream" (intro)
9. Katy Perry, Skip Marley - "Chained to the Rhythm"
10. William Bell, Gary Clark Jr. - "Born Under a Bad Sign"
11. Maren Morris, Alicia Keys - "Once"
12. Adele - Tribute to George Michael: "Fastlove"
13. Metallica, Lady Gaga - "Moth into Flame"
14. Sturgill Simpson, The Dap-Kings - "All Around You"
15. Demi Lovato, Andra Day, Tori Kelly, Little Big Town - Tribute to the Bee Gees: "Stayin' Alive" / "Tragedy" / "How Deep Is Your Love" / "Night Fever"
16. A Tribe Called Quest: Anderson Paak, Busta Rhymes, Consequence - "Award Tour" / "Movin Backwards" / "We the People...."
17. The Time, Bruno Mars - Tribute to Prince: "Jungle Love" / "The Bird" / "Let's Go Crazy"
18. Pentatonix - "ABC"
19. Chance the Rapper, Kirk Franklin, Francis and the Lights, Tamela Mann - "How Great" / "All We Got"
20. John Legend, Cynthia Erivo - Tribute to musicians who had died in the past year: "God Only Knows"
General
Unique ID : 242370045989309638970112813516317710971 (0xB656C5DE0A96A2B78440AD058EA2DA7B)
Complete name : The.59th.Annual.Grammy.Awards.2017.HDTVRip.720p.x264-RUS-lrn.mkv
Format : Matroska
Format version : Version 4 / Version 2
File size : 3.17 GiB
Duration : 1 h 43 min
Overall bit rate : 4 386 kb/s
Movie name : The.59th.Annual.Grammy.Awards.2017.HDTVRip.720p.x264-RUS-lrn
Encoded date : UTC 2010-02-22 21:41:31
Writing application : mkvmerge v5.9.0 ('On The Loose') built on Dec 9 2012 15:37:01
Writing library : libebml v1.3.0 + libmatroska v1.4.0

Video
ID : 1
Format : AVC
Format/Info : Advanced Video Codec
Format profile : High@L4.1
Format settings, CABAC : Yes
Format settings, ReFrames : 8 frames
Codec ID : V_MPEG4/ISO/AVC
Duration : 1 h 43 min
Bit rate : 4 000 kb/s
Width : 1 280 pixels
Height : 720 pixels
Display aspect ratio : 16:9
Frame rate mode : Constant
Frame rate : 25.000 FPS
Color space : YUV
Chroma subsampling : 4:2:0
Bit depth : 8 bits
Scan type : Progressive
Bits/(Pixel*Frame) : 0.174
Stream size : 2.83 GiB (89%)
Writing library : x264 core 148 r2638 7599210
Encoding settings : cabac=1 / ref=8 / deblock=1:-3:-3 / analyse=0x3:0x133 / me=umh / subme=9 / psy=1 / psy_rd=1.00:0.00 / mixed_ref=1 / me_range=32 / chroma_me=1 / trellis=2 / 8x8dct=1 / cqm=0 / deadzone=21,11 / fast_pskip=1 / chroma_qp_offset=-2 / threads=12 / lookahead_threads=2 / sliced_threads=0 / nr=0 / decimate=1 / interlaced=0 / bluray_compat=0 / constrained_intra=0 / bframes=8 / b_pyramid=2 / b_adapt=2 / b_bias=0 / direct=3 / weightb=1 / open_gop=0 / weightp=2 / keyint=250 / keyint_min=25 / scenecut=40 / intra_refresh=0 / rc_lookahead=50 / rc=2pass / mbtree=1 / bitrate=4000 / ratetol=1.0 / qcomp=0.60 / qpmin=0 / qpmax=69 / qpstep=4 / cplxblur=20.0 / qblur=0.5 / vbv_maxrate=62500 / vbv_bufsize=78125 / nal_hrd=none / filler=0 / ip_ratio=1.40 / aq=1:1.00
Default : Yes
Forced : No
Statistics Tags Issue : mkvmerge v8.5.2 ('Crosses') 32bit 2017-02-18 12:50:05 / mkvmerge v5.9.0 ('On The Loose') built on Dec 9 2012 15:37:01 2010-02-22 21:41:31
FromStats_BitRate : 3999939
FromStats_Duration : 01:43:21.920000000
FromStats_FrameCount : 155048
FromStats_StreamSize : 3100913407

Audio
ID : 2
Format : AC-3
Format/Info : Audio Coding 3
Mode extension : CM (complete main)
Format settings, Endianness : Big
Codec ID : A_AC3
Duration : 1 h 43 min
Bit rate mode : Constant
Bit rate : 384 kb/s
Channel(s) : 6 channels
Channel positions : Front: L C R, Side: L R, LFE
Sampling rate : 48.0 kHz
Frame rate : 31.250 FPS (1536 spf)
Bit depth : 16 bits
Compression mode : Lossy
Stream size : 284 MiB (9%)
Language : Russian
Default : Yes
Forced : No
raw [info]: 1280x720p 1:1 @ 25/1 fps (cfr)
x264 [info]: using SAR=1/1
x264 [info]: using cpu capabilities: MMX2 SSE2Fast SSSE3 SSE4.2 AVX
x264 [info]: profile High, level 4.1
x264 [info]: frame I:921 Avg QP:16.06 size: 91261
x264 [info]: frame P:42553 Avg QP:18.88 size: 37434
x264 [info]: frame B:111574 Avg QP:21.08 size: 12762
x264 [info]: consecutive B-frames: 2.6% 4.7% 10.6% 67.4% 9.6% 4.3% 0.4% 0.3% 0.1%
x264 [info]: mb I I16..4: 13.0% 67.8% 19.2%
x264 [info]: mb P I16..4: 7.2% 17.2% 2.4% P16..4: 39.8% 15.6% 9.6% 0.5% 0.1% skip: 7.5%
x264 [info]: mb B I16..4: 0.8% 1.9% 0.3% B16..8: 36.2% 9.2% 2.2% direct: 9.3% skip:40.1% L0:39.6% L1:43.6% BI:16.7%
x264 [info]: 8x8 transform intra:64.0% inter:66.2%
x264 [info]: direct mvs spatial:96.7% temporal:3.3%
x264 [info]: coded y,uvDC,uvAC intra: 57.8% 82.4% 50.0% inter: 21.9% 32.5% 3.8%
x264 [info]: i16 v,h,dc,p: 39% 24% 8% 30%
x264 [info]: i8 v,h,dc,ddl,ddr,vr,hd,vl,hu: 13% 10% 10% 8% 11% 13% 11% 11% 11%
x264 [info]: i4 v,h,dc,ddl,ddr,vr,hd,vl,hu: 18% 9% 6% 8% 13% 15% 10% 11% 10%
x264 [info]: i8c dc,h,v,p: 33% 27% 22% 18%
x264 [info]: Weighted P-Frames: Y:10.8% UV:8.8%
x264 [info]: ref P L0: 51.3% 11.1% 17.3% 6.0% 4.7% 3.5% 3.2% 2.3% 0.5% 0.1%
x264 [info]: ref B L0: 82.6% 9.4% 3.6% 1.8% 1.3% 0.9% 0.5%
x264 [info]: ref B L1: 96.1% 3.9%
x264 [info]: kb/s:3999.94
encoded 155048 frames, 13.22 fps, 3999.94 kb/s



Скачать 59-я.церемония.вручения.наград.Грэмми.The.59th.Grammy.Awards.2017.[2017.HDTVRip].[720p].[DVO].torrent без регистрации
Золото ЗОЛОТАЯ РАЗДАЧА! СКАЧАННОЕ НЕ ЗАСЧИТЫВАЕТСЯ! Золото
Дата: Зарегистрирован   [ Тип: внутренний ] Как тут cкачать?
MAGNET ссылка
MAGNET ссылка


Скачать .torrent

17 KB

Статус: проверено DHT
Скачан: торрент - 12 раз, раздача полностью - 24 раз
Размер: 3,17 GB
Оценка:  - (Голосов: 0)
Поблагодарили: 0
Поделиться ссылкой на эту раздачу с друзьями:
В контактеFacebookОдноклассникиTwitterLivejournalМой МирLiveinternet
 

 
Показать сообщения:    


Вы не можете начинать темы
Вы не можете отвечать на сообщения
Вы не можете редактировать свои сообщения
Вы не можете удалять свои сообщения
Вы не можете голосовать в опросах
Вы не можете прикреплять файлы к сообщениям
Вы можете скачивать файлы