Loading...
Error

Скачать Во все тяжкие / Breaking Bad (сезоны 01-05) (Мишель Максвелл МакЛарен и др.) [2008-2013, триллер, драма, криминал, BDRip] [1080p] [DVO (Кубик в Кубе)]+[Eng]+[Sub Rus, Eng] торрент без регистрации

Статистика раздачи
Размер:  253,45 GB   |    Скачан:  17 раз
Сидов:  1  [  0 KB/s  ]  
 
 
 
Автор Сообщение

МихаНЕзатор

[] 

Информация о фильме
Название: Во все тяжкие
Оригинальное название: Breaking Bad
Год выхода: 2008-2013
Жанр: триллер, драма, криминал

Режиссер: Мишель Максвелл МакЛарен, Адам Бернштейн, Винс Джиллигэн

В ролях: Брайан Крэнстон, Анна Ганн, Аарон Пол, Дин Норрис, Бетси Брандт, АрДжей Митт, Боб Оденкёрк, Джанкарло Эспозито, Джонатан Бэнкс, Стивен Майкл Квезада, Кристофер Казинс, Чарльз Бэйкер, Майкл Шамус Уайлз, Кристен Риттер, Марк Марголис, Кармен Серано, Джереми Битсуи, Дэвид Костабайл, Эмили Риос, Дэвид Хаус, Тина Паркер, Йен Посада, Дэниэл Монкада, Лавелл Кроуфорд, Джесси Племонс, Мариус Стэн, Родни Раш, Луис Монкада, Кайя Бейлс, Рэймонд Крус, Тесс Харпер, Лора Фрейзер, Джон де Ланси, Джер Бернс, Найджел Гиббс, Том Киш

О фильме: Школьный учитель химии Уолтер Уайт узнаёт, что болен раком лёгких. Учитывая сложное финансовое состояние дел семьи, а также перспективы, Уолтер решает заняться изготовлением метамфетамина. Для этого он привлекает своего бывшего ученика Джесси Пинкмана, когда-то исключённого из школы при активном содействии Уайта. Пинкман сам занимался «варкой мета», но накануне, в ходе рейда ОБН, он лишился подельника и лаборатории…



Релиз от: Alcort

Страна: США
Студия: Sony Pictures Television, American Movie Classics (AMC)
Продолжительность: ~ 00:48:00
Перевод: профессиональный двухголосый закадровый [Кубик в Кубе]

Файл
Кодек: x264/MPEG-4 AVC
Качество: 1080p
Видео: 1920x1080, 23,976 fps, 11,0 Mbps
Звук:
Russian: AC3 / 5.1 / 48 kHz / 16-bit / 640 Kbps DVO [Кубик в Кубе]
English: AC3 / 5.1 / 48 kHz / 16-bit / 640 Kbps [Original]
Субтитры: русские (форсированные) "srt", русские (полные) "srt", английские "srt"

Complete name : D:Breaking.Bad_BDRip 1080p(Rus.Eng)Season_03Breaking.Bad_s03.e02.mkv
Format : Matroska
Format version : Version 4 / Version 2
File size : 4.05 GiB
Duration : 47mn 12s
Overall bit rate : 12.3 Mbps
Movie name : Breaking Bad (2010) Season_03 Episode_02: Caballo sin nombre / Конь без клички
Encoded date : UTC 2017-02-27 19:57:39
Writing application : mkvmerge v9.5.0 ('Quiet Fire') 64bit
Writing library : libebml v1.3.4 + libmatroska v1.4.5
DURATION : 00:41:59.474000000
NUMBER_OF_FRAMES : 414
NUMBER_OF_BYTES : 16228
_STATISTICS_WRITING_APP : mkvmerge v9.5.0 ('Quiet Fire') 64bit
_STATISTICS_WRITING_DATE_UTC : 2017-02-27 19:57:39
_STATISTICS_TAGS : BPS DURATION NUMBER_OF_FRAMES NUMBER_OF_BYTES

Video
ID : 1
Format : AVC
Format/Info : Advanced Video Codec
Format profile : High@L4.1
Format settings, CABAC : Yes
Format settings, ReFrames : 4 frames
Codec ID : V_MPEG4/ISO/AVC
Duration : 47mn 12s
Bit rate : 11.0 Mbps
Width : 1 920 pixels
Height : 1 080 pixels
Display aspect ratio : 16:9
Frame rate mode : Constant
Frame rate : 23.976 fps
Color space : YUV
Chroma subsampling : 4:2:0
Bit depth : 8 bits
Scan type : Progressive
Bits/(Pixel*Frame) : 0.221
Stream size : 3.55 GiB (88%)
Title : Breaking.Bad_BDRip1080p [encoded by Alcort]
Writing library : x264 core 140 r2377 1ca7bb9
Encoding settings : cabac=1 / ref=4 / deblock=1:-1:-1 / analyse=0x3:0x133 / me=umh / subme=9 / psy=1 / psy_rd=1.00:0.00 / mixed_ref=1 / me_range=32 / chroma_me=1 / trellis=2 / 8x8dct=1 / cqm=0 / deadzone=21,11 / fast_pskip=0 / chroma_qp_offset=-2 / threads=2 / lookahead_threads=1 / sliced_threads=0 / slices=4 / nr=0 / decimate=1 / interlaced=0 / bluray_compat=0 / constrained_intra=0 / bframes=3 / b_pyramid=2 / b_adapt=2 / b_bias=0 / direct=3 / weightb=1 / open_gop=0 / weightp=2 / keyint=230 / keyint_min=23 / scenecut=40 / intra_refresh=0 / rc_lookahead=40 / rc=2pass / mbtree=1 / bitrate=10999 / ratetol=1.0 / qcomp=0.60 / qpmin=0 / qpmax=69 / qpstep=4 / cplxblur=20.0 / qblur=0.5 / ip_ratio=1.40 / aq=1:1.00
Default : Yes
Forced : No

Audio #1
ID : 2
Format : AC-3
Format/Info : Audio Coding 3
Mode extension : CM (complete main)
Format settings, Endianness : Big
Codec ID : A_AC3
Duration : 47mn 12s
Bit rate mode : Constant
Bit rate : 640 Kbps
Channel(s) : 6 channels
Channel positions : Front: L C R, Side: L R, LFE
Sampling rate : 48.0 KHz
Bit depth : 16 bits
Compression mode : Lossy
Stream size : 216 MiB (5%)
Title : DVO [Кубик в Кубе]
Language : Russian
Default : Yes
Forced : No

Audio #2
ID : 3
Format : AC-3
Format/Info : Audio Coding 3
Mode extension : CM (complete main)
Format settings, Endianness : Big
Codec ID : A_AC3
Duration : 47mn 12s
Bit rate mode : Constant
Bit rate : 640 Kbps
Channel(s) : 6 channels
Channel positions : Front: L C R, Side: L R, LFE
Sampling rate : 48.0 KHz
Bit depth : 16 bits
Compression mode : Lossy
Stream size : 216 MiB (5%)
Title : Original
Language : English
Default : No
Forced : No

Text #1
ID : 4
Format : UTF-8
Codec ID : S_TEXT/UTF8
Codec ID/Info : UTF-8 Plain Text
Title : forced
Language : Russian
Default : Yes
Forced : No

Text #2
ID : 5
Format : UTF-8
Codec ID : S_TEXT/UTF8
Codec ID/Info : UTF-8 Plain Text
Title : full
Language : Russian
Default : No
Forced : No

Text #3
ID : 6
Format : UTF-8
Codec ID : S_TEXT/UTF8
Codec ID/Info : UTF-8 Plain Text
Title : original
Language : English
Default : No
Forced : No

Menu
00:00:00.000 : :Chapter 01
00:04:32.145 : :Chapter 02
00:15:12.703 : :Chapter 03
00:24:16.871 : :Chapter 04
00:35:54.944 : :Chapter 05
00:46:28.577 : :Chapter 06
00:47:10.577 : :Chapter 07

Season_01
01. Pilot / Пилот
02. Cat's in the Bag.../ Кот уже в мешке...
03. ...And the Bag's in the River / А мешок уже в реке
04. Cancer Man / Раковый больной
05. Gray Matter / Серое вещество
06. Crazy Handful of Nothin'/ Блеф на пустой руке
07. A No-Rough-Stuff-Type Deal / Тихий бизнес без суеты и напрягов

Season_02
01. Seven Thirty-Seven / Семьсот тридцать семь
02. Grilled / Попандос
03. Bit by a Dead Bee / Укус мертвой пчелы
04. Down / На дне
05. Breakage / Бой товара
06. Peekaboo / Ку-ку
07. Negro Y Azul / Синий мет на черном рынке
08. Better Call Saul / Надо звонить Солу!
09. 4 Days Out / 4 дня на природе
10. Over / Всё
11. Mandala / Мандала
12. Phoenix / Феникс
13. ABQ / АБК

Season_03
01. No Mas / Баста
02. Caballo sin nombre / Конь без клички
03. I.F.T. / Я.Т.Т.
04. Green Light / Зеленый цвет
05. Mas / По новой
06. Sunset / На закате
07. One Minute / Одна минута
08. I See You / Я тебя вижу
09. Kafkaesque / По-кафкиански
10. Fly / Муха
11. Abiquiu / Абикиу
12. Half Measures / Полумеры
13. Full Measure / Полная мера

Season_04
01. Box Cutter / Канцелярский нож
02. Thirty-Eight Snub / Тридцать восьмой, курносый
03. Open House / День открытых дверей
04. Bullet Points / Ключевые моменты
05. Shotgun / Боец
06. Cornered / В углу
07. Problem Dog / Проблемный пёс
08. Hermanos / Братья
09. Bug / Жучок
10. Salud
11. Crawl Space / Подпол
12. End Times / Конец света
13. Face Off / Кто кого

Season_05
01. Live Free or Die / Живи Свободным или Умри
02. Madrigal / Мадригал
03. Hazard Pay / Опасные Условия
04. Fifty-One / 51
05. Dead Freight / Недогруз
06. Buyout / Выкуп
07. Say My Name / Назови Мое Имя
08. Gliding Over All / Паря Над Всем
09. Blood Money / Кровавые Деньги
10. Buried / Зарытое
11. Confessions / Признания
12. Rabid Dog / Бешеный Пёс
13. To'hajiilee / Тохаджили
14. Ozymandias / Озимандий
15. Granite State / Гранитный Штат
16. FeLiNa / ФеЛина - Финал Сериала
- Сайт адвоката Сола Гудмана bettercallsaul.com существует на самом деле.

- Сайт «Спасем Уолтера Уайта», созданный во втором сезоне Уолтером-младшим, действительно существует

- Главный герой сериала Уолтер Уайт в криминальном мире известен под псевдонимом Гейзенберг (либо Хайзенберг) (нем. Heisenberg), основанном на имени нобелевского лауреата по физике 1932 года Вернера Карла Гейзенберга (нем. Werner Karl Heisenberg).

- Во вступительных титрах показываются: формула метамфетамина (C10 H15 N); его молекулярная масса 149,24; в заглавных буквах имен и в самой заставке сериала демонстрируются некоторые химические элементы.

- Исполнитель роли Уолтера-младшего RJ Митт, как и его персонаж, живет с церебральным параличом.

- Первый сезон должен был состоять из 9 эпизодов, но по причине забастовки сценаристов было снято только 7.

- О сериале высоко отозвался писатель Стивен Кинг, сказав, что это лучший сценарий на ТВ.

- Брайан Крэнстон в сериале выступает не только как актер, но и как режиссер нескольких эпизодов.

- Фамилии Уолтера и Джесси — Уайт (англ. White) и Пинкман (англ. Pinkman) — являются отсылкой к фильму Квентина Тарантино «Бешеные псы» (1991).

- Сериал вошел в Книгу рекордов Гиннесcа 2014 года как «сериал с самым высоким рейтингом» после того, как он набрал 99 баллов из 100 на портале MetaCritic.

- Во время съемок эпизода «Полумеры» Венди должна была изображать проститутку на улице. Один из случайных прохожих принял ее за настоящую «жрицу любви» и пытался договориться о цене. В связи с этим недоразумением съемки пришлось немного отложить.

- В комментариях к DVD с первым сезоном Винс Гиллиган рассказал, что в первоначальном варианте персонаж Джесси Пинкмана должен был умереть к концу сезона. Однако создатели изменили решение, оценив игру Аарона Пола.

- В 13 серии 3 сезона в квартире Гейла можно заметить книгу Стивена Кинга, сборник рассказов «Все предельно».




Скачать Во.все.тяжкие.Breaking.Bad.(сезоны.01-05).(Мишель.Максвелл.МакЛарен.и.др.).[2008-2013.триллер.драма.криминал.BDRip].[1080p].[DVO.(Кубик.в.Кубе)]+[Eng]+[Sub.Rus.Eng].torrent без регистрации
Золото ЗОЛОТАЯ РАЗДАЧА! СКАЧАННОЕ НЕ ЗАСЧИТЫВАЕТСЯ! Золото
Дата: Зарегистрирован   [ Тип: внутренний ] Как тут cкачать?
MAGNET ссылка
MAGNET ссылка


Скачать .torrent

1 MB

Статус: проверено DHT
Скачан: торрент - 17 раз, раздача полностью - 2 раз
Размер: 253,45 GB
Оценка:  - (Голосов: 0)
Поблагодарили: 0
Поделиться ссылкой на эту раздачу с друзьями:
В контактеFacebookОдноклассникиTwitterLivejournalМой МирLiveinternet
 

 
Показать сообщения:    


Вы не можете начинать темы
Вы не можете отвечать на сообщения
Вы не можете редактировать свои сообщения
Вы не можете удалять свои сообщения
Вы не можете голосовать в опросах
Вы не можете прикреплять файлы к сообщениям
Вы можете скачивать файлы