Loading...
Error

Скачать Бермудский треугольник / The Triangle (01-03 из 03) (Крэйг Р. Бэксли) [2005, фантастика, боевик, триллер, драма, детектив, приключения, HDTVRip] [1080p] [DVO]+[Eng] торрент без регистрации

Статистика раздачи
Размер:  20,29 GB   |    Скачан:  68 раз
Сидов:  1  [  0 KB/s  ]  

 
 
 
Автор Сообщение

МихаНЕзатор

[] 

Название: Бермудский треугольник
Оригинальное название: The Triangle
Год выхода: 2005 TV Mini-Series
Жанр: фантастика, боевик, триллер, драма, детектив, приключения
Режиссер: Крэйг Р. Бэксли

В ролях: Эрик Столц, Катрин Белл, Лу Даймонд Филлипс, Брюс Дэвисон, Майкл Э. Роджерс, Сэм Нил, Лиза Бреннер, Джон Слоун, Чарльз Мартин Смит, Бэрри Ингэм, ...

О фильме: Миллиардер Эрик Бениролл нанимает команду специалистов, чтобы те попытались выяснить причину исчезновения в районе Бермудского треугольника принадлежавших ему кораблей. Команда — журналист-скептик, инженер, ученый и экстрасенс — отправились в заданный район и вскоре столкнулись с аномальными явлениями, но, как оказалось, это — только начало. Что происходит? Куда они плывут? Они живы или мертвы? Пришельцы или что-то еще?…



Страна: Великобритания, США
Студия: Bad Hat Harry Productions, British Broadcasting Corporation (BBC)
Продолжительность: 01:24:55, 01:19:43, 01:19:57
Перевод: Профессиональный (двуголосый, закадровый) R5 «Союз-Видео»

Кодек: x264
Качество: HDTVRip 1080p
Видео: 1920x1080 , 11000 kbps, 25 fps
Аудио #1: AC-3, 6 ch, 448 kbps (Rus) - DVO R5 «Союз-Видео»
Аудио #2: AC-3, 6 ch, 384 kbps (Eng) - 1 серия
Аудио #2: AC-3, 6 ch, 448 kbps (Eng) - 2 и 3 серии
Субтитры: нет

АНОНСЫ ПОПУЛЯРНЫХ РАЗДАЧ
За исходник спасибо - alexshel

Первая серия:
x264 [info]: frame I:722 Avg QP:17.29 size:134515
x264 [info]: frame P:31223 Avg QP:20.07 size: 84848
x264 [info]: frame B:95450 Avg QP:22.28 size: 44620
x264 [info]: consecutive B-frames: 3.3% 4.1% 14.6% 17.7% 14.7% 40.9% 4.0% 0.4% 0.2% 0.0% 0.0%
------------------------------------
Вторая серия:
x264 [info]: frame I:718 Avg QP:15.92 size:134337
x264 [info]: frame P:29420 Avg QP:18.88 size: 85890
x264 [info]: frame B:89438 Avg QP:21.12 size: 44195
x264 [info]: consecutive B-frames: 3.8% 4.3% 13.8% 15.4% 13.8% 43.7% 4.1% 0.4% 0.3% 0.1% 0.2%
-------------------------------------
Третья серия:
x264 [info]: frame I:702 Avg QP: 9.52 size:115383
x264 [info]: frame P:34757 Avg QP:12.61 size: 83607
x264 [info]: frame B:84479 Avg QP:15.04 size: 42717
x264 [info]: consecutive B-frames: 8.8% 7.3% 11.9% 11.7% 8.3% 48.9% 1.8% 0.5% 0.3% 0.2% 0.4%
-------------------------------------

Общее
Уникальный идентификатор : 199550937994233539025792978052044041086 (0x96201CD9576157B0AD8B6C91EF682B7E)
Полное имя : The Triangle E01 2005 HDTVRip 1080p.mkv
Формат : Matroska
Версия формата : Version 2
Размер файла : 7,02 Гбайт
Продолжительность : 1 ч. 24 м.
Общий поток : 11,8 Мбит/сек
Дата кодирования : UTC 2017-03-03 07:16:06
Программа кодирования : mkvmerge v4.0.0 ('The Stars were mine') сборка от Jun 6 2010 16:18:42
Библиотека кодирования : libebml v1.0.0 + libmatroska v1.0.0

Видео
Идентификатор : 1
Формат : AVC
Формат/Информация : Advanced Video Codec
Профиль формата : High@L4.1
Параметр CABAC формата : Да
Параметр ReFrames формата : 4 кадра
Идентификатор кодека : V_MPEG4/ISO/AVC
Продолжительность : 1 ч. 24 м.
Битрейт : 11,0 Мбит/сек
Ширина : 1920 пикселей
Высота : 1080 пикселей
Соотношение сторон : 16:9
Режим частоты кадров : Постоянный
Частота кадров : 25,000 кадров/сек
Цветовое пространство : YUV
Субдискретизация насыщенности : 4:2:0
Битовая глубина : 8 бит
Тип развёртки : Прогрессивная
Бит/(Пиксели*Кадры) : 0.212
Размер потока : 6,39 Гбайт (91%)
Библиотека кодирования : x264 core 146 r2538 121396c
Настройки программы : cabac=1 / ref=4 / deblock=1:-1:-1 / analyse=0x3:0x133 / me=umh / subme=11 / psy=1 / psy_rd=1.00:0.00 / mixed_ref=1 / me_range=32 / chroma_me=1 / trellis=2 / 8x8dct=1 / cqm=0 / deadzone=21,11 / fast_pskip=0 / chroma_qp_offset=-2 / threads=12 / lookahead_threads=2 / sliced_threads=0 / nr=0 / decimate=0 / interlaced=0 / bluray_compat=0 / constrained_intra=0 / bframes=10 / b_pyramid=2 / b_adapt=2 / b_bias=0 / direct=3 / weightb=1 / open_gop=0 / weightp=2 / keyint=250 / keyint_min=25 / scenecut=40 / intra_refresh=0 / rc=2pass / mbtree=0 / bitrate=11000 / ratetol=1.0 / qcomp=0.60 / qpmin=0 / qpmax=69 / qpstep=4 / cplxblur=20.0 / qblur=0.5 / ip_ratio=1.40 / pb_ratio=1.30 / aq=3:0.80
Язык : English
Default : Нет
Forced : Нет

Аудио #1
Идентификатор : 2
Формат : AC-3
Формат/Информация : Audio Coding 3
Расширение режима : CM (complete main)
Параметр Endianness формата : Big
Идентификатор кодека : A_AC3
Продолжительность : 1 ч. 24 м.
Вид битрейта : Постоянный
Битрейт : 448 Кбит/сек
Каналы : 6 каналов
Расположение каналов : Front: L C R, Side: L R, LFE
Частота : 48,0 КГц
Частота кадров : 31,250 кадров/сек (1536 spf)
Метод сжатия : С потерями
Размер потока : 272 Мбайт (4%)
Заголовок : DVO
Язык : Russian
Default : Нет
Forced : Нет

Аудио #2
Идентификатор : 3
Формат : AC-3
Формат/Информация : Audio Coding 3
Расширение режима : CM (complete main)
Параметр Endianness формата : Big
Идентификатор кодека : A_AC3
Продолжительность : 1 ч. 24 м.
Вид битрейта : Постоянный
Битрейт : 384 Кбит/сек
Каналы : 6 каналов
Расположение каналов : Front: L C R, Side: L R, LFE
Частота : 48,0 КГц
Частота кадров : 31,250 кадров/сек (1536 spf)
Метод сжатия : С потерями
Размер потока : 233 Мбайт (3%)
Язык : English
Default : Нет
Forced : Нет




Скачать Бермудский.треугольник.The.Triangle.(01-03.из.03).(Крэйг.Р.Бэксли).[2005.фантастика.боевик.триллер.драма.детектив.приключения.HDTVRip].[1080p].[DVO]+[Eng].torrent без регистрации
Золото ЗОЛОТАЯ РАЗДАЧА! СКАЧАННОЕ НЕ ЗАСЧИТЫВАЕТСЯ! Золото
Дата: Зарегистрирован   [ Тип: внутренний ] Как тут cкачать?
MAGNET ссылка
MAGNET ссылка


Скачать .torrent

103 KB

Статус: проверено DHT
Скачан: торрент - 68 раз, раздача полностью - 87 раз
Размер: 20,29 GB
Оценка:  - (Голосов: 0)
Поблагодарили: 3
Поделиться ссылкой на эту раздачу с друзьями:
В контактеFacebookОдноклассникиTwitterLivejournalМой МирLiveinternet
 

 
Показать сообщения:    


Вы не можете начинать темы
Вы не можете отвечать на сообщения
Вы не можете редактировать свои сообщения
Вы не можете удалять свои сообщения
Вы не можете голосовать в опросах
Вы не можете прикреплять файлы к сообщениям
Вы можете скачивать файлы