Loading...
Error

Скачать Механик: Воскрешение / Mechanic: Resurrection (Дэннис Ганзель) [2016, Боевик, BDRip] [720p] [DUB] [R.G. GoldenShara] торрент без регистрации

Статистика раздачи
Размер:  2,18 GB   |    Скачан:  151 раз

Полного источника не было: 7 часов

 
 
 
Автор Сообщение

LORDKILL

[] 


Механик: Воскрешение / Mechanic: Resurrection


Год выпуска: 2016
Выпущено: Франция, США
Жанр: Боевик
Продолжительность: 01:38:39
Перевод: Профессиональный (полное дублирование)
Субтитры: Русские (форс., полные), английские

Режиссер: Дэннис Ганзель

В ролях: Джейсон Стэйтем, Джессика Альба, Томми Ли Джонс, Мишель Йео, Наталия Гуслистая, Ейяинг Рхатха Пхонгам, Сэм Хэзелдайн, Джон Ченатьемпо, Райчо Василев, Аарон Брамфилд

Описание: Артура Бишопа, давно оставившего свое криминальное ремесло, вынуждают снова вступить в игру. Чтобы похитители вернули его возлюбленную, он должен сделать то, что у него получается лучше всего: от него требуется совершить три убийства, идеально обставленных как несчастные случаи.







Качество: BDRip 720p
Формат: MKV
Видео кодек: H.264
Аудио кодек: AC3
Видео: 1280x536 (2.40:1), 2520 kbps, 23.976 fps
Аудио: Русский (AC-3, 6ch, 640 kbps)


x264 [info]: frame I:1439 Avg QP:16.11 size: 92218
x264 [info]: frame P:42016 Avg QP:19.67 size: 23011
x264 [info]: frame B:98458 Avg QP:22.78 size: 7769
x264 [info]: consecutive B-frames: 8.0% 6.9% 16.6% 21.3% 19.0% 21.7% 4.2% 1.2% 1.1%
x264 [total]: encoded 141913 frames, 8.76 fps, 2519.94 kb/s
General
Unique ID : 175030312591170491719035750816274959067 (0x83AD9CAD4F0051E7A3F8EF45313BCADB)
Complete name : F:\ФИЛЬМЫ\Механик.Воскрешение.2016.x264.BDRip.720p.DUB.mkv
Format : Matroska
Format version : Version 4 / Version 2
File size : 2.18 GiB
Duration : 1 h 38 min
Overall bit rate : 3 162 kb/s
Movie name : Механик: Воскрешение / Mechanic: Resurrection (2016) - #LORDKILL#
Encoded date : UTC 2017-03-15 05:36:15
Writing application : mkvmerge v9.5.0 ('Quiet Fire') 64bit
Writing library : libebml v1.3.4 + libmatroska v1.4.5

Video
ID : 1
Format : AVC
Format/Info : Advanced Video Codec
Format profile : High@L4.1
Format settings, CABAC : Yes
Format settings, ReFrames : 10 frames
Codec ID : V_MPEG4/ISO/AVC
Duration : 1 h 38 min
Bit rate : 2 520 kb/s
Width : 1 280 pixels
Height : 536 pixels
Display aspect ratio : 2.40:1
Frame rate mode : Constant
Frame rate : 23.976 (24000/1001) FPS
Color space : YUV
Chroma subsampling : 4:2:0
Bit depth : 8 bits
Scan type : Progressive
Bits/(Pixel*Frame) : 0.153
Stream size : 1.74 GiB (80%)
Writing library : x264 core 146 r2538 121396c
Encoding settings : cabac=1 / ref=10 / deblock=1:-2:-2 / analyse=0x3:0x113 / me=umh / subme=11 / psy=1 / psy_rd=1.00:0.10 / mixed_ref=1 / me_range=32 / chroma_me=1 / trellis=2 / 8x8dct=1 / cqm=0 / deadzone=21,11 / fast_pskip=0 / chroma_qp_offset=-3 / threads=12 / lookahead_threads=2 / sliced_threads=0 / nr=0 / decimate=1 / interlaced=0 / bluray_compat=0 / constrained_intra=0 / bframes=8 / b_pyramid=2 / b_adapt=2 / b_bias=0 / direct=3 / weightb=1 / open_gop=0 / weightp=2 / keyint=240 / keyint_min=23 / scenecut=40 / intra_refresh=0 / rc=2pass / mbtree=0 / bitrate=2520 / ratetol=1.0 / qcomp=0.60 / qpmin=0 / qpmax=69 / qpstep=4 / cplxblur=20.0 / qblur=0.5 / ip_ratio=1.40 / pb_ratio=1.30 / aq=1:1.00
Language : English
Default : Yes
Forced : No

Audio
ID : 2
Format : AC-3
Format/Info : Audio Coding 3
Mode extension : CM (complete main)
Format settings, Endianness : Big
Codec ID : A_AC3
Duration : 1 h 38 min
Bit rate mode : Constant
Bit rate : 640 kb/s
Channel(s) : 6 channels
Channel positions : Front: L C R, Side: L R, LFE
Sampling rate : 48.0 kHz
Frame rate : 31.250 FPS (1536 spf)
Bit depth : 16 bits
Compression mode : Lossy
Stream size : 451 MiB (20%)
Title : Дубляж
Language : Russian
Default : Yes
Forced : No

Text #1
ID : 3
Format : UTF-8
Codec ID : S_TEXT/UTF8
Codec ID/Info : UTF-8 Plain Text
Duration : 1 h 31 min
Bit rate : 1 b/s
Count of elements : 19
Stream size : 962 Bytes (0%)
Title : Forced
Language : Russian
Default : Yes
Forced : No

Text #2
ID : 4
Format : UTF-8
Codec ID : S_TEXT/UTF8
Codec ID/Info : UTF-8 Plain Text
Duration : 1 h 33 min
Bit rate : 44 b/s
Count of elements : 594
Stream size : 30.6 KiB (0%)
Title : Full
Language : Russian
Default : No
Forced : No

Text #3
ID : 5
Format : UTF-8
Codec ID : S_TEXT/UTF8
Codec ID/Info : UTF-8 Plain Text
Duration : 1 h 30 min
Bit rate : 29 b/s
Count of elements : 631
Stream size : 19.8 KiB (0%)
Title : Full
Language : English
Default : No
Forced : No

Menu
00:00:00.000 : en:00:00:00.000
00:06:34.936 : en:00:06:34.936
00:11:51.336 : en:00:11:51.336
00:18:31.277 : en:00:18:31.277
00:26:04.897 : en:00:26:04.897
00:31:57.540 : en:00:31:57.540
00:38:31.267 : en:00:38:31.267
00:43:35.696 : en:00:43:35.696
00:49:23.210 : en:00:49:23.210
00:54:20.382 : en:00:54:20.382
01:00:09.856 : en:01:00:09.856
01:05:50.446 : en:01:05:50.446
01:10:25.429 : en:01:10:25.429
01:14:52.363 : en:01:14:52.363
01:21:04.860 : en:01:21:04.860
01:31:38.785 : en:01:31:38.785





Скачать Механик.Воскрешение.Mechanic.Resurrection.(Дэннис.Ганзель).[2016.Боевик.BDRip].[720p].[DUB].[R.G.GoldenShara].torrent без регистрации
Золото ЗОЛОТАЯ РАЗДАЧА! СКАЧАННОЕ НЕ ЗАСЧИТЫВАЕТСЯ! Золото
Дата: Зарегистрирован   [ Тип: внутренний ] Как тут cкачать?
MAGNET ссылка
MAGNET ссылка


Скачать .torrent

11 KB

Статус: проверено
Скачан: торрент - 151 раз, раздача полностью - 119 раз
Размер: 2,18 GB
Оценка:  5 (Голосов: 4)
Поблагодарили: 13
Поделиться ссылкой на эту раздачу с друзьями:
В контактеFacebookОдноклассникиTwitterLivejournalМой МирLiveinternet
 

 

ruslanmrl

[] 

спасибо тебе за релиз! /viewtopic.php?t=16118349#
 
Показать сообщения:    


Вы не можете начинать темы
Вы не можете отвечать на сообщения
Вы не можете редактировать свои сообщения
Вы не можете удалять свои сообщения
Вы не можете голосовать в опросах
Вы не можете прикреплять файлы к сообщениям
Вы можете скачивать файлы