Loading...
Error

Скачать Новогодний корпоратив / Office Christmas Party (Джош Гордон, Уилл Спек) [2016, Комедия, Blu-Ray Remux] [1080p] [DUB (Лицензия)]+[Eng]+[Sub Rus, Eng] торрент без регистрации

Статистика раздачи
Размер:  23,86 GB   |    Скачан:  272 раза
Сидов:  1  [  0 KB/s  ]  
 
 
 
Автор Сообщение

leon030982

[] 

Информация о фильме
Название: Новогодний корпоратив
Оригинальное название: Office Christmas Party
Год выхода: 2016
Жанр: Комедия
Режиссер: Джош Гордон, Уилл Спек

В ролях: Джейсон Бейтмен, Оливия Манн, ТиДжей Миллер, Дженнифер Энистон, Кейт МакКиннон, Кортни Б. Вэнс, Джиллиан Белл, Роб Кордри, Ванесса Байер, Рэндолл Парк

О фильме: Когда сестра героя, вице-президент компании, угрожает брату закрыть его филиал, Клей и его помощник Джош Паркер понимают, что единственный шанс спасти филиал от краха — уговорить влиятельного Уолтера Дэвиса купить их услуги и заключить контракт. Друзья решают закатить настоящую новогоднюю вечеринку в офисе и пригласить туда Уолтера, чтобы пообщаться в неформальной обстановке. Этот корпоратив все запомнят надолго! Однако праздник выходит из-под контроля...



Страна: США
Студия: Bluegrass Films, DreamWorks Pictures, DreamWorks SKG
Продолжительность: 01:45:08
Перевод: Дублированный | Лицензия

Файл
Качество: BDRemux 1080p
Видео: MPEG-4 AVC, 1920x1080, 29.8 Mbit/s, 24.000 fps
Звук:
Аудио #01: 48 kHz, AC3, 5.1, 640 Kbps | Дублированный | iTunes | RUS |
Аудио #02: 48 kHz, DTS-HD MA, 5.1, 2048 Kbps | Оригинал | ENG |
Субтитры: Русские (forced, full), английские

АНОНСЫ ПОПУЛЯРНЫХ РАЗДАЧ


Торрент обновлён, заменён лицензионным!
General
Unique ID : 203576541827288981869858716984461529832 (0x99276A71150BF5BC99E16DF15F0092E8)
Complete name : F:VideoOffice.Christmas.Party.2016.Lic.BDREMUX.1080p.ExKinoRay.mkv
Format : Matroska
Format version : Version 4 / Version 2
File size : 23.9 GiB
Duration : 1 h 45 min
Overall bit rate mode : Variable
Overall bit rate : 32.5 Mb/s
Encoded date : UTC 2017-04-03 13:15:34
Writing application : mkvmerge v10.0.0 ('To Drown In You') 64bit
Writing library : libebml v1.3.4 + libmatroska v1.4.5

Video
ID : 1
Format : AVC
Format/Info : Advanced Video Codec
Format profile : High@L4.1
Format settings, CABAC : Yes
Format settings, ReFrames : 4 frames
Codec ID : V_MPEG4/ISO/AVC
Duration : 1 h 45 min
Bit rate mode : Variable
Bit rate : 29.8 Mb/s
Maximum bit rate : 35.0 Mb/s
Width : 1 920 pixels
Height : 1 080 pixels
Display aspect ratio : 16:9
Frame rate mode : Constant
Frame rate : 24.000 FPS
Standard : NTSC
Color space : YUV
Chroma subsampling : 4:2:0
Bit depth : 8 bits
Scan type : Progressive
Bits/(Pixel*Frame) : 0.598
Stream size : 21.9 GiB (92%)
Language : English
Default : Yes
Forced : No
Color range : Limited
Color primaries : BT.709
Transfer characteristics : BT.709
Matrix coefficients : BT.709

Audio #1
ID : 2
Format : AC-3
Format/Info : Audio Coding 3
Format settings, Endianness : Big
Codec ID : A_AC3
Duration : 1 h 45 min
Bit rate mode : Constant
Bit rate : 640 kb/s
Channel(s) : 6 channels
Channel positions : Front: L C R, Side: L R, LFE
Sampling rate : 48.0 kHz
Frame rate : 31.250 FPS (1536 spf)
Bit depth : 16 bits
Compression mode : Lossy
Stream size : 482 MiB (2%)
Title : Dub [License]
Language : Russian
Service kind : Complete Main
Default : Yes
Forced : No

Audio #2
ID : 3
Format : DTS
Format/Info : Digital Theater Systems
Format profile : MA / Core
Mode : 16
Format settings, Endianness : Big
Codec ID : A_DTS
Duration : 1 h 45 min
Bit rate mode : Variable / Constant
Bit rate : 2 048 kb/s / 1 509 kb/s
Channel(s) : 6 channels
Channel positions : Front: L C R, Side: L R, LFE
Sampling rate : 48.0 kHz
Frame rate : 93.750 FPS (512 spf)
Bit depth : 16 bits
Compression mode : Lossless / Lossy
Stream size : 1.52 GiB (6%)
Title : Original
Language : English
Default : No
Forced : No

Text #1
ID : 4
Format : UTF-8
Codec ID : S_TEXT/UTF8
Codec ID/Info : UTF-8 Plain Text
Duration : 1 h 35 min
Bit rate : 1 b/s
Count of elements : 24
Stream size : 1.34 KiB (0%)
Title : Forced
Language : Russian
Default : Yes
Forced : No

Text #2
ID : 5
Format : UTF-8
Codec ID : S_TEXT/UTF8
Codec ID/Info : UTF-8 Plain Text
Duration : 1 h 41 min
Bit rate : 146 b/s
Count of elements : 2216
Stream size : 108 KiB (0%)
Title : Full
Language : Russian
Default : No
Forced : No

Text #3
ID : 6
Format : UTF-8
Codec ID : S_TEXT/UTF8
Codec ID/Info : UTF-8 Plain Text
Duration : 1 h 40 min
Bit rate : 97 b/s
Count of elements : 2312
Stream size : 72.1 KiB (0%)
Title : Full
Language : English
Default : No
Forced : No

Text #4
ID : 7
Format : UTF-8
Codec ID : S_TEXT/UTF8
Codec ID/Info : UTF-8 Plain Text
Duration : 1 h 41 min
Bit rate : 105 b/s
Count of elements : 2512
Stream size : 78.5 KiB (0%)
Title : SDH
Language : English
Default : No
Forced : No

Menu
00:00:00.000 : en:00:00:00.000
00:08:02.708 : en:00:08:02.708
00:12:26.333 : en:00:12:26.333
00:22:25.250 : en:00:22:25.250
00:28:45.625 : en:00:28:45.625
00:32:00.792 : en:00:32:00.792
00:39:18.625 : en:00:39:18.625
00:48:50.625 : en:00:48:50.625
00:54:02.417 : en:00:54:02.417
00:59:19.333 : en:00:59:19.333
01:04:26.292 : en:01:04:26.292
01:10:02.375 : en:01:10:02.375
01:15:32.000 : en:01:15:32.000
01:20:58.167 : en:01:20:58.167
01:26:23.833 : en:01:26:23.833
01:34:44.500 : en:01:34:44.500
01:39:13.625 : en:01:39:13.625




Скачать Новогодний.корпоратив.Office.Christmas.Party.(Джош.Гордон.Уилл.Спек).[2016.Комедия.Blu-Ray.Remux].[1080p].[DUB.(Лицензия)]+[Eng]+[Sub.Rus.Eng].torrent без регистрации
Золото ЗОЛОТАЯ РАЗДАЧА! СКАЧАННОЕ НЕ ЗАСЧИТЫВАЕТСЯ! Золото
Дата: Зарегистрирован   [ Тип: внутренний ] Как тут cкачать?
MAGNET ссылка
MAGNET ссылка


Скачать .torrent

120 KB

Статус: проверено DHT
Скачан: торрент - 272 раз, раздача полностью - 42 раз
Размер: 23,86 GB
Оценка:  5 (Голосов: 1)
Поблагодарили: 8
Поделиться ссылкой на эту раздачу с друзьями:
В контактеFacebookОдноклассникиTwitterLivejournalМой МирLiveinternet
 

 
Показать сообщения:    


Вы не можете начинать темы
Вы не можете отвечать на сообщения
Вы не можете редактировать свои сообщения
Вы не можете удалять свои сообщения
Вы не можете голосовать в опросах
Вы не можете прикреплять файлы к сообщениям
Вы можете скачивать файлы