Loading...
Error

Скачать Предвестники бури / Thunderbirds (Джонатан Фрейкс) [2004, фантастика, боевик, комедия, приключения, семейный, HDTVRip] [MVO] торрент без регистрации

Статистика раздачи
Размер:  749 MB   |    Скачан:  18 раз

Полного источника не было: 29 минут

 
 
 
Автор Сообщение

Marsianka

[] 

Информация о фильме
Название: Предвестники бури
Оригинальное название: Thunderbirds
Год выхода: 2004
Жанр: фантастика, боевик, комедия, приключения, семейный
Режиссер: Джонатан Фрейкс
В ролях: Брэйди Корбет, Дебора Уэстон, Сорен Фултон, Лу Хирш, Алекс Бэрринджер, Деметри Горицас, Джени Френсис, Филип Уинчестер, Деобиа Опарей, Билл Пэкстон, Ванесса Энн Хадженс, ...

О фильме:
2065 год. «Буревестники» — сильные и смелые люди, собранные в спасательный межпланетный отряд таинственным астронавтом Джефом Трейси. Они призваны бороться с мировыми катаклизмами в любой точке Вселенной. Их штаб — на орбите планеты Земля. Предотвратив крупную катастрофу на нефтяной скважине, «Буревестники» возвращаются на секретную базу и сталкиваются с очередной катастрофой. Их станция разрушена громадным метеором. Они понимают, что это — часть зловещего плана международного террориста Аристотеля Споуда, цель которого — захватить станцию космических спасателей и установить там свои порядки. Но «Буревестники» не сдаются…



Страна: Великобритания, Франция, США
Студия: Working Title Films, StudioCanal, Tracy Films
Продолжительность: 01:30:42
Перевод: Профессиональный (многоголосный, закадровый) R5 «Парадиз»

Файл
Кодек: XviD
Качество: HDTVRip
Видео: 656x352 (1.85:1), 25 fps, XviD build 73 ~1016 kbps avg, 0.18 bit/pixel
Звук: 48 kHz, MPEG Layer 3, 2 ch, ~128.00 kbps avg
Субтитры: Отсутствуют

Семпл
General
Complete name : D:Изготовление рипаPredvestniki byri (Thunderbirds) 745 mb 2004 HDTVRip by shkiper.avi
Format : AVI
Format/Info : Audio Video Interleave
File size : 749 MiB
Duration : 1 h 30 min
Overall bit rate : 1 154 kb/s
Writing application : VirtualDubMod 1.5.10.3 | www.virtualdub-fr.org || (build 2550/release)
Writing library : VirtualDubMod build 2550/release

Video
ID : 0
Format : MPEG-4 Visual
Format profile : Advanced Simple@L5
Format settings, BVOP : 1
Format settings, QPel : No
Format settings, GMC : No warppoints
Format settings, Matrix : Custom
Codec ID : XVID
Codec ID/Hint : XviD
Duration : 1 h 30 min
Bit rate : 1 016 kb/s
Width : 656 pixels
Height : 352 pixels
Display aspect ratio : 1.85:1
Frame rate : 25.000 FPS
Color space : YUV
Chroma subsampling : 4:2:0
Bit depth : 8 bits
Scan type : Progressive
Compression mode : Lossy
Bits/(Pixel*Frame) : 0.176
Stream size : 659 MiB (88%)
Writing library : XviD 73

Audio
ID : 1
Format : MPEG Audio
Format version : Version 1
Format profile : Layer 3
Codec ID : 55
Codec ID/Hint : MP3
Duration : 1 h 30 min
Bit rate mode : Constant
Bit rate : 128 kb/s
Channel(s) : 2 channels
Sampling rate : 48.0 kHz
Compression mode : Lossy
Stream size : 83.0 MiB (11%)
Alignment : Aligned on interleaves
Interleave, duration : 40 ms (1.00 video frame)
Interleave, preload duratio : 504 ms
Writing library : LAME3.99r
Encoding settings : -m s -V 4 -q 2 -lowpass 17 -b 128
Релиз от:



Скачать Предвестники.бури.Thunderbirds.(Джонатан.Фрейкс).[2004.фантастика.боевик.комедия.приключения.семейный.HDTVRip].[MVO].torrent без регистрации
Золото ЗОЛОТАЯ РАЗДАЧА! СКАЧАННОЕ НЕ ЗАСЧИТЫВАЕТСЯ! Золото
Дата: Зарегистрирован   [ Тип: внутренний ] Как тут cкачать?
MAGNET ссылка
MAGNET ссылка


Скачать .torrent

16 KB

Статус: проверено DHT
Скачан: торрент - 18 раз, раздача полностью - 2 раз
Размер: 749 MB
Оценка:  - (Голосов: 0)
Поблагодарили: 0
Поделиться ссылкой на эту раздачу с друзьями:
В контактеFacebookОдноклассникиTwitterLivejournalМой МирLiveinternet
 

 
Показать сообщения:    


Вы не можете начинать темы
Вы не можете отвечать на сообщения
Вы не можете редактировать свои сообщения
Вы не можете удалять свои сообщения
Вы не можете голосовать в опросах
Вы не можете прикреплять файлы к сообщениям
Вы можете скачивать файлы