Loading...
Error

Скачать Невидимый гость / Contratiempo (Ориол Паоло) [2016, триллер, криминал, детектив, BDRip] [1080p] [MVO (Alex Film)]+[Spa]+[Sub Rus, Eng] торрент без регистрации

Статистика раздачи
Размер:  13,94 GB   |    Скачан:  291 раз
Сидов:  1  [  0 KB/s  ]  
 
 
 
Автор Сообщение

МихаНЕзатор

[] 

Невидимый гость / The Invisible Guest / Contratiempo


Информация о фильме
Название: Невидимый гость
Оригинальное название: Contratiempo
Год выхода: 2016
Жанр: Триллер
Режиссер: Ориол Паоло

В ролях: Марио Касас, Хосе Коронадо, Барбара Ленни, Ана Вахенер, Франсеск Орелья, Кристиан Валенсиа, Пако Тоус, Бетси Тунес, Давид Сельвас

О фильме: Молодой бизнесмен Эдриан Дориа просыпается в закрытом изнутри номере отеля рядом с бездыханным телом своей любовницы. Его обвиняют в убийстве, но он, не считая себя виновным, решает воспользоваться услугами Вирджинии Гудман, лучшего в стране специалиста по выходу из самых сложных ситуаций. В течение одной ночи консультант и её клиент будут работать, чтобы найти разумное опровержение обвинению, и, тем самым, высвободить его из тюрьмы.



Страна: Испания
Студия: Atresmedia, Atresmedia Cine, Colosé Producciones, Movistar+
Продолжительность: 01:46:19
Перевод: Профессиональный многоголосый | Alex Film

Файл
Качество: BDRip 1080p
Видео: MPEG-4 AVC, 1920x804, 17.5 Mbit/s, 23.976 fps
Звук:
Аудио #01: 48 kHz, AC3, 5.1, 640 Kbps | Профессиональный многоголосый | RUS |
Аудио #02: 48 kHz, AC3, 5.1, 640 Kbps | Оригинал | SPA |
Субтитры: Русские (full), английские
General
Unique ID : 238864888925593296332730107772330585777 (0xB3B3B4480DC32DF0BBA2309F49342EB1)
Complete name : G:VideoSSDThe.Invisible.Guest.2016.BDRip.1080.ExKinoRay.mkv
Format : Matroska
Format version : Version 4 / Version 2
File size : 13.9 GiB
Duration : 1 h 46 min
Overall bit rate : 18.8 Mb/s
Movie name : The Invisible Guest 2016 from ExKinoRay
Encoded date : UTC 2017-12-01 21:39:28
Writing application : mkvmerge v17.0.0 ('Be Ur Friend') 64-bit
Writing library : libebml v1.3.5 + libmatroska v1.4.8

Video
ID : 1
Format : AVC
Format/Info : Advanced Video Codec
Format profile : High@L4.1
Format settings : CABAC / 5 Ref Frames
Format settings, CABAC : Yes
Format settings, RefFrames : 5 frames
Codec ID : V_MPEG4/ISO/AVC
Duration : 1 h 46 min
Bit rate : 17.5 Mb/s
Width : 1 920 pixels
Height : 804 pixels
Display aspect ratio : 2.40:1
Frame rate mode : Constant
Frame rate : 23.976 (24000/1001) FPS
Color space : YUV
Chroma subsampling : 4:2:0
Bit depth : 8 bits
Scan type : Progressive
Bits/(Pixel*Frame) : 0.473
Stream size : 13.0 GiB (93%)
Writing library : x264 core 142 r2431+42 c69a006 tMod [8-bit@4:2:0 X86]
Encoding settings : cabac=1 / ref=5 / deblock=1:-3:-3 / analyse=0x3:0x133 / me=umh / subme=10 / psy=1 / fade_compensate=0.00 / psy_rd=1.00:0.00 / mixed_ref=1 / me_range=48 / chroma_me=1 / trellis=2 / 8x8dct=1 / cqm=0 / deadzone=21,11 / fast_pskip=0 / chroma_qp_offset=-2 / threads=12 / lookahead_threads=1 / sliced_threads=0 / nr=0 / decimate=0 / interlaced=0 / bluray_compat=0 / constrained_intra=0 / fgo=0 / bframes=6 / b_pyramid=2 / b_adapt=2 / b_bias=0 / direct=3 / weightb=1 / open_gop=0 / weightp=2 / keyint=230 / keyint_min=22 / scenecut=40 / intra_refresh=0 / rc_lookahead=60 / rc=2pass / mbtree=1 / bitrate=17500 / ratetol=1.0 / qcomp=0.60 / qpmin=0:0:0 / qpmax=69:69:69 / qpstep=4 / cplxblur=20.0 / qblur=0.5 / vbv_maxrate=50000 / vbv_bufsize=50000 / nal_hrd=none / filler=0 / ip_ratio=1.40 / aq=1:1.00 / aq-sensitivity=10.00 / aq-factor=1.00:1.00:1.00 / aq2=0 / aq3=0
Language : English
Default : Yes
Forced : No

Audio #1
ID : 2
Format : AC-3
Format/Info : Audio Coding 3
Format settings, Endianness : Big
Codec ID : A_AC3
Duration : 1 h 46 min
Bit rate mode : Constant
Bit rate : 640 kb/s
Channel(s) : 6 channels
Channel positions : Front: L C R, Side: L R, LFE
Sampling rate : 48.0 kHz
Frame rate : 31.250 FPS (1536 SPF)
Bit depth : 16 bits
Compression mode : Lossy
Stream size : 487 MiB (3%)
Title : MVO
Language : Russian
Service kind : Complete Main
Default : Yes
Forced : No

Audio #2
ID : 3
Format : AC-3
Format/Info : Audio Coding 3
Format settings, Endianness : Big
Codec ID : A_AC3
Duration : 1 h 46 min
Bit rate mode : Constant
Bit rate : 640 kb/s
Channel(s) : 6 channels
Channel positions : Front: L C R, Side: L R, LFE
Sampling rate : 48.0 kHz
Frame rate : 31.250 FPS (1536 SPF)
Bit depth : 16 bits
Compression mode : Lossy
Stream size : 487 MiB (3%)
Title : Original
Language : Spanish
Service kind : Complete Main
Default : No
Forced : No

Text #1
ID : 4
Format : UTF-8
Codec ID : S_TEXT/UTF8
Codec ID/Info : UTF-8 Plain Text
Duration : 1 h 40 min
Bit rate : 108 b/s
Count of elements : 1104
Stream size : 80.1 KiB (0%)
Title : Full
Language : Russian
Default : No
Forced : No

Text #2
ID : 5
Format : UTF-8
Codec ID : S_TEXT/UTF8
Codec ID/Info : UTF-8 Plain Text
Duration : 1 h 39 min
Bit rate : 58 b/s
Count of elements : 1223
Stream size : 42.7 KiB (0%)
Title : Full
Language : English
Default : No
Forced : No

Menu
00:00:00.000 : en:00:00:00.000
00:07:22.942 : en:00:07:22.942
00:13:53.875 : en:00:13:53.875
00:20:23.305 : en:00:20:23.305
00:27:20.138 : en:00:27:20.138
00:32:53.513 : en:00:32:53.513
00:38:25.428 : en:00:38:25.428
00:46:52.977 : en:00:46:52.977
00:56:39.354 : en:00:56:39.354
01:00:23.370 : en:01:00:23.370
01:09:11.397 : en:01:09:11.397
01:16:34.381 : en:01:16:34.381
01:21:11.241 : en:01:21:11.241
01:27:45.093 : en:01:27:45.093
01:35:06.743 : en:01:35:06.743
01:40:37.740 : en:01:40:37.740



Скачать Невидимый.гость.Contratiempo.(Ориол.Паоло).[2016.триллер.криминал.детектив.BDRip].[1080p].[MVO.(Alex.Film)]+[Spa]+[Sub.Rus.Eng].torrent без регистрации
Золото ЗОЛОТАЯ РАЗДАЧА! СКАЧАННОЕ НЕ ЗАСЧИТЫВАЕТСЯ! Золото
Дата: Зарегистрирован   [ Тип: внутренний ] Как тут cкачать?
MAGNET ссылка
MAGNET ссылка


Скачать .torrent

71 KB

Статус: проверено DHT
Скачан: торрент - 291 раз, раздача полностью - 241 раз
Размер: 13,94 GB
Оценка:  5 (Голосов: 2)
Поблагодарили: 13
Поделиться ссылкой на эту раздачу с друзьями:
В контактеFacebookОдноклассникиTwitterLivejournalМой МирLiveinternet
 

 
Показать сообщения:    


Вы не можете начинать темы
Вы не можете отвечать на сообщения
Вы не можете редактировать свои сообщения
Вы не можете удалять свои сообщения
Вы не можете голосовать в опросах
Вы не можете прикреплять файлы к сообщениям
Вы можете скачивать файлы