Loading...
Error

Скачать Преисподняя / Brimstone (Мартин Кулховен) [2016, триллер, детектив, вестерн, BDRip-AVC] [MVO (лицензия)]+[Ukr]+[Sub Rus, Eng] торрент без регистрации

Статистика раздачи
Размер:  2,91 GB   |    Скачан:  101 раз
Сидов:  25  [  0 KB/s  ]  
 
 
 
Автор Сообщение

МихаНЕзатор

[] 

Преисподняя / Brimstone


Страна: Нидерланды Франция Германия Бельгия Швеция Великобритания
Производство: Backup Media, FilmWave, Illusion Film & Television AB, N279 Entertainment, Prime Time, X-Filme Creative Pool
Год выпуска: 2016
Жанр: триллер, детектив, вестерн
Режиссер: Мартин Кулховен
Автор сценария: Мартин Кулховен

В ролях: Дакота Фаннинг, Кит Харингтон, Кэрис ван Хаутен, Гай Пирс, Пол Андерсон, Эмилия Джонс, Карла Юри, Тиго Гернандт, Джек Рот

Описание: История о девушке по имени Лиз, которая пытается сбежать от своего темного прошлого и скрывается от преследования «дьявольского» проповедника...

Дата премьеры (мир): 3 сентября 2016
Дата премьеры (РФ): 12 января 2017, «Вольга»



Продолжительность: 02:28:34
Перевод: Профессиональный (многоголосый, закадровый) | Лицензия
Субтитры: Русские, английские

Качество: BDRip (AVC)
Видео: MPEG-4 AVC, 1528 Кбит/с, 1024x428
Аудио №1: 48.0 kHz, AC3 Dolby Digital, 3/2 (L,C,R,l,r) + LFE ch, ~448 kbps | RUS
Аудио №2: 48.0 kHz, AC3 Dolby Digital, 3/2 (L,C,R,l,r) + LFE ch, ~384 kbps | UKR

АНОНСЫ ПОПУЛЯРНЫХ РАЗДАЧ


Торрент обновлён, улучшен видеоряд и звук!

General
Unique ID : 226840800784496024232897508147459182182 (0xAAA7F2F72AAABDF7AAD4DC2AA9F2CE66)
Complete name : D:Brimstone.2016.MVO.BDRip.AVC.ExKinoRay.mkv
Format : Matroska
Format version : Version 2
File size : 2.91 GiB
Duration : 2 h 28 min
Overall bit rate : 2 808 kb/s
Movie name : Brimstone (2016) from ExKinoRay
Encoded date : UTC 2017-11-20 12:35:27
Writing application : mkvmerge v5.6.0 ('Kenya Kane') built on May 27 2012 16:44:04
Writing library : libebml v1.2.3 + libmatroska v1.3.0

Video
ID : 1
Format : AVC
Format/Info : Advanced Video Codec
Format profile : High@L4.1
Format settings, CABAC : Yes
Format settings, ReFrames : 12 frames
Codec ID : V_MPEG4/ISO/AVC
Duration : 2 h 28 min
Bit rate : 1 528 kb/s
Width : 1 024 pixels
Height : 428 pixels
Display aspect ratio : 2.40:1
Frame rate mode : Constant
Frame rate : 23.976 (24000/1001) FPS
Color space : YUV
Chroma subsampling : 4:2:0
Bit depth : 8 bits
Scan type : Progressive
Bits/(Pixel*Frame) : 0.145
Stream size : 1.53 GiB (52%)
Writing library : x264 core 144 r2525 40bb568
Encoding settings : cabac=1 / ref=12 / deblock=1:-2:-2 / analyse=0x3:0x113 / me=umh / subme=10 / psy=1 / psy_rd=1.00:0.04 / mixed_ref=1 / me_range=32 / chroma_me=1 / trellis=2 / 8x8dct=1 / cqm=0 / deadzone=21,11 / fast_pskip=1 / chroma_qp_offset=-3 / threads=12 / lookahead_threads=3 / sliced_threads=0 / nr=0 / decimate=1 / interlaced=0 / bluray_compat=0 / constrained_intra=0 / bframes=12 / b_pyramid=2 / b_adapt=2 / b_bias=0 / direct=3 / weightb=1 / open_gop=0 / weightp=2 / keyint=240 / keyint_min=23 / scenecut=40 / intra_refresh=0 / rc_lookahead=40 / rc=2pass / mbtree=0 / bitrate=1528 / ratetol=1.0 / qcomp=0.60 / qpmin=0 / qpmax=51 / qpstep=4 / cplxblur=20.0 / qblur=0.5 / vbv_maxrate=50000 / vbv_bufsize=62500 / nal_hrd=none / filler=0 / ip_ratio=1.40 / pb_ratio=1.30 / aq=1:0.80
Language : English
Default : Yes
Forced : No
Color range : Limited
Color primaries : BT.709
Transfer characteristics : BT.709
Matrix coefficients : BT.709

Audio #1
ID : 2
Format : AC-3
Format/Info : Audio Coding 3
Mode extension : CM (complete main)
Format settings, Endianness : Big
Codec ID : A_AC3
Duration : 2 h 28 min
Bit rate mode : Constant
Bit rate : 448 kb/s
Channel(s) : 6 channels
Channel positions : Front: L C R, Side: L R, LFE
Sampling rate : 48.0 kHz
Frame rate : 31.250 FPS (1536 spf)
Compression mode : Lossy
Stream size : 476 MiB (16%)
Title : MVO (BD RUS)
Language : Russian
Default : Yes
Forced : No

Audio #2
ID : 3
Format : AC-3
Format/Info : Audio Coding 3
Mode extension : CM (complete main)
Format settings, Endianness : Big
Codec ID : A_AC3
Duration : 2 h 28 min
Bit rate mode : Constant
Bit rate : 384 kb/s
Channel(s) : 6 channels
Channel positions : Front: L C R, Side: L R, LFE
Sampling rate : 48.0 kHz
Frame rate : 31.250 FPS (1536 spf)
Compression mode : Lossy
Stream size : 408 MiB (14%)
Language : Ukrainian
Default : No
Forced : No

Audio #3
ID : 4
Format : AC-3
Format/Info : Audio Coding 3
Mode extension : CM (complete main)
Format settings, Endianness : Big
Codec ID : A_AC3
Duration : 2 h 28 min
Bit rate mode : Constant
Bit rate : 448 kb/s
Channel(s) : 6 channels
Channel positions : Front: L C R, Side: L R, LFE
Sampling rate : 48.0 kHz
Frame rate : 31.250 FPS (1536 spf)
Compression mode : Lossy
Stream size : 476 MiB (16%)
Language : English
Default : No
Forced : No

Text #1
ID : 5
Format : UTF-8
Codec ID : S_TEXT/UTF8
Codec ID/Info : UTF-8 Plain Text
Language : Russian
Default : No
Forced : No

Text #2
ID : 6
Format : UTF-8
Codec ID : S_TEXT/UTF8
Codec ID/Info : UTF-8 Plain Text
Title : Forced
Language : English
Default : No
Forced : No

Text #3
ID : 7
Format : UTF-8
Codec ID : S_TEXT/UTF8
Codec ID/Info : UTF-8 Plain Text
Title : Full
Language : English
Default : No
Forced : No

Menu
00:00:00.000 : en:00:00:00.000
00:04:29.853 : en:00:04:29.853
00:11:51.920 : en:00:11:51.920
00:19:58.489 : en:00:19:58.489
00:25:06.213 : en:00:25:06.213
00:32:22.190 : en:00:32:22.190
00:42:25.042 : en:00:42:25.042
00:48:21.148 : en:00:48:21.148
00:55:44.341 : en:00:55:44.341
01:01:14.254 : en:01:01:14.254
01:06:42.040 : en:01:06:42.040
01:17:13.963 : en:01:17:13.963
01:24:38.156 : en:01:24:38.156
01:32:47.312 : en:01:32:47.312
01:39:57.241 : en:01:39:57.241
01:49:04.788 : en:01:49:04.788
01:56:10.630 : en:01:56:10.630
02:02:54.867 : en:02:02:54.867
02:13:38.177 : en:02:13:38.177
02:20:17.909 : en:02:20:17.909



Скачать Преисподняя.Brimstone.(Мартин.Кулховен).[2016.триллер.детектив.вестерн.BDRip-AVC].[MVO.(лицензия)]+[Ukr]+[Sub.Rus.Eng].torrent без регистрации
Золото ЗОЛОТАЯ РАЗДАЧА! СКАЧАННОЕ НЕ ЗАСЧИТЫВАЕТСЯ! Золото
Дата: Зарегистрирован   [ Тип: внешний ] Как тут cкачать?
MAGNET ссылка
MAGNET ссылка


Скачать .torrent

16 KB

Статус: проверено DHT
Скачан: торрент - 101 раз, раздача полностью - 42 раз
Размер: 2,91 GB
Оценка:  - (Голосов: 0)
Поблагодарили: 7
Поделиться ссылкой на эту раздачу с друзьями:
В контактеFacebookОдноклассникиTwitterLivejournalМой МирLiveinternet
 

 
Показать сообщения:    


Вы не можете начинать темы
Вы не можете отвечать на сообщения
Вы не можете редактировать свои сообщения
Вы не можете удалять свои сообщения
Вы не можете голосовать в опросах
Вы не можете прикреплять файлы к сообщениям
Вы можете скачивать файлы