Loading...
Error

Скачать Тайны острова Мако / Mako Mermaids (сезон 02) (Грант Браун, Ивэн Кларри) [2015, фэнтези, комедия, приключения, WEB-DL] [720p] [Dub (Disney)]+[Eng] торрент без регистрации

Статистика раздачи
Размер:  19,27 GB   |    Скачан:  26 раз
Сидов:  1  [  0 KB/s  ]  
 
 
 
Автор Сообщение

МихаНЕзатор

[] 

Информация о фильме
Название: Тайны острова Мако
Оригинальное название: Mako Mermaids
Год выхода: 2015
Страна: Австралия
Жанр: фэнтези, комедия, приключения
Режиссер: Грант Браун, Ивэн Кларри

В ролях: Эми Раффл, Чай Ромруен, Доминик Дойчер, Роуэн Хиллс, Керит Эткинсон, Джемма Форсайт, Брук Николь Ли, Элли Бертрам, Алекс Кубис, Изабель Дюрант

О фильме: Двум русалкам Ондине и Мимми предстоит отобрать всю мощь у Зака и отстоять остров Мако, до этого принадлежащий их стае. Они совершают побег из стаи и заводят дружбу с Сиреной на земле, где выясняют, что Зак связан с островком гораздо больше, чем они предполагали. Их цель усложняется после того, как нечаянно по их вине девушка Зака, Эви, стала русалкой... и ещё много-много интересных событий.



Релиз от: -merci-

Продолжительность: 26 x ~ 00:25:00
Сезон: 2
Перевод: Профессиональный (полное дублирование) Disney
Субтитры: Отсутствуют

Файл
Качество: WEB-DL 720p
Формат: MKV
Видео: MPEG-4. AVC, High@L3.1, 1272x716, 16:9, 25 fps, ~ 3 920 kbps
Аудио #1: RUS: Dub (Disney) 48 kHz, AC3 Dolby Digital, 2/0 (L,R) ch, ~192.00 kbps avg
Аудио #2: ENG: original 48 kHz, AC3 Dolby Digital, 2/0 (L,R) ch, ~192.00 kbps avg

s2e01. Седьмой цикл (The Seventh Cycle)
s2e02. Липкий случай (Sticky Situation)
s2e03. Открытие (Discovery)
s2e04. Новый хвост (A New Tail)
s2e05. Дело плохо (Bad For Business)
s2e06. Бушующее море (Stormy Seas)
s2e07. Пробуждение (Awakening)
s2e08. Земная школа (Land School)
s2e09. Безбилетник (Stowaway)
s2e10. Сохраняя секрет (Keeping The Secret)
s2e11. Юность в душе (As Young As You Feel)
s2e12. Под контролем (Supervised)
s2e13. Воссоединение (Reunion)
s2e14. Новичок (The New Man)
s2e15. Поосторожнее с желаниями (Careful What You Wish For)
s2e16. Первое свидание (First Date)
s2e17. Тритонов код (The Merman Code)
s2e18. Сирена (The Siren)
s2e19. Сюрприз! (Surprise!)
s2e20. Трудоустройство (The Job)
s2e21. Новые приказы (New Orders)
s2e22. Последний танец за мной (The Last Dance)
s2e23. Останься или уходи (Stay or Go)
s2e24. Правда об Эви (The Truth About Evie)
s2e25. Камень Трезубца (The Trident Stone)
s2e26. Избранный (The Chosen One)

s2e19. Сюрприз! D.WEB-DL.720p.-merci-.mkv
Format : Matroska
Format version : Version 2
File size : 758 MiB
Duration : 24mn 8s
Overall bit rate : 4 392 Kbps
Movie name : Тайны острова Мако (2 сезон) / Disney (Dub) /
Encoded date : UTC 2015-10-21 17:30:40
Writing application : mkvmerge v5.8.0 ('No Sleep / Pillow') built on Sep 2 2012 15:37:04
Writing library : libebml v1.2.3 + libmatroska v1.3.0

Video
ID : 1
Format : AVC
Format/Info : Advanced Video Codec
Format profile : High@L3.1
Format settings, CABAC : Yes
Format settings, ReFrames : 2 frames
Codec ID : V_MPEG4/ISO/AVC
Duration : 24mn 8s
Bit rate : 3 920 Kbps
Width : 1 272 pixels
Height : 716 pixels
Display aspect ratio : 16:9
Frame rate mode : Constant
Frame rate : 25.000 fps
Color space : YUV
Chroma subsampling : 4:2:0
Bit depth : 8 bits
Scan type : Progressive
Bits/(Pixel*Frame) : 0.172
Stream size : 677 MiB (89%)
Title : s2e19. Сюрприз! (Surprise!). WEB-DL.720p.-merci-
Language : English
Default : Yes
Forced : No
Color range : Limited
Color primaries : BT.709
Transfer characteristics : BT.709
Matrix coefficients : BT.709

Audio #1
ID : 2
Format : AC-3
Format/Info : Audio Coding 3
Mode extension : CM (complete main)
Format settings, Endianness : Big
Codec ID : A_AC3
Duration : 24mn 8s
Bit rate mode : Constant
Bit rate : 192 Kbps
Channel(s) : 2 channels
Channel positions : Front: L R
Sampling rate : 48.0 KHz
Compression mode : Lossy
Stream size : 33.2 MiB (4%)
Title : Dub (Disney)
Language : Russian
Default : Yes
Forced : No

Audio #2
ID : 3
Format : AC-3
Format/Info : Audio Coding 3
Mode extension : CM (complete main)
Format settings, Endianness : Big
Codec ID : A_AC3
Duration : 24mn 8s
Bit rate mode : Constant
Bit rate : 192 Kbps
Channel(s) : 2 channels
Channel positions : Front: L R
Sampling rate : 48.0 KHz
Compression mode : Lossy
Stream size : 33.2 MiB (4%)
Title : Original
Language : English
Default : No
Forced : No



Скачать Тайны.острова.Мако.Mako.Mermaids.(сезон.02).(Грант.Браун.Ивэн.Кларри).[2015.фэнтези.комедия.приключения.WEB-DL].[720p].[Dub.(Disney)]+[Eng].torrent без регистрации
Золото ЗОЛОТАЯ РАЗДАЧА! СКАЧАННОЕ НЕ ЗАСЧИТЫВАЕТСЯ! Золото
Дата: Зарегистрирован   [ Тип: внутренний ] Как тут cкачать?
MAGNET ссылка
MAGNET ссылка


Скачать .torrent

52 KB

Статус: проверено DHT
Скачан: торрент - 26 раз, раздача полностью - 0 раз
Размер: 19,27 GB
Оценка:  - (Голосов: 0)
Поблагодарили: 0
Поделиться ссылкой на эту раздачу с друзьями:
В контактеFacebookОдноклассникиTwitterLivejournalМой МирLiveinternet
 

 
Показать сообщения:    


Вы не можете начинать темы
Вы не можете отвечать на сообщения
Вы не можете редактировать свои сообщения
Вы не можете удалять свои сообщения
Вы не можете голосовать в опросах
Вы не можете прикреплять файлы к сообщениям
Вы можете скачивать файлы