Loading...
Error

Скачать Тайны острова Мако / Mako Mermaids (сезон 01) (Грант Браун, Ивэн Кларри) [2015, фэнтези, комедия, приключения, WEB-DL] [1080p] [Dub (Disney)]+[Eng] торрент без регистрации

Статистика раздачи
Размер:  23,78 GB   |    Скачан:  12 раз
Сидов:  1  [  0 KB/s  ]  
 
 
 
Автор Сообщение

МихаНЕзатор

[] 

Информация о фильме
Название: Тайны острова Мако, (Секрет острова Мако), (Русалки Мако)
Оригинальное название: Mako Mermaids
Год выхода: 2013
Страна: Австралия, Jonathan M. Shiff Productions
Жанр: Детский, молодежный, фэнтези, комедия, приключения
Режиссер: Ивэн Кларри

В ролях: Чай Ромруен, Доминик Дойчер, Джемма Форсайт, Люси Фрай, Айви Латимер, Эми Раффл, Джо Дэвидсон, Эмма Райт, Керит Эткинсон,

О фильме: Сериал возвращает нас в уже знакомый лунный бассейн (из сериала: "H2O: Просто добавь воды"). Когда 15-летний Зак отправляется на пикник на остров Мако, то он даже не подозревает, что каждый его шаг внимательно отслеживается тремя русалками - Сиреной, Никси и Лилой, которые тщательно охраняют остров от постороннего вмешательства. Но в полнолуние Зак контактирует с водой из лунного пруда и обретает магические силы. Проснувшись утром дома, он обнаружил вместо ног плавник, а также способность управлять водой. Теперь Зак приносит немало сюрпризов для русалок с острова Мако... Русалки теперь должны стать людьми и найти Зака, чтобы отобрать его магические силы, или их исключат из сообщества русалок.

премьера (мир) 26 июля 2013, ...
премьера (РФ) 1 сентября 2014



Релиз от: -merci-
Релиз: исходники от EduardBGK; работа со звуком, синхронизация от -merci-

Продолжительность: 26 x ~ 00:24:30
Сезон: 1
Перевод: Профессиональный (полное дублирование) Disney
Дублировано студией "Кириллица" по заказу телеканала "Disney".

Файл
Качество: WEB-DL 1080p
Формат: MKV
Видео: MPEG-4. AVC, High@L4, 1920x1080 (16:9), 25 fps, ~ 4 998 kbps
Аудио #1: RUS: Dub (Disney) 48 kHz, AC3 Dolby Digital, 2/0 (L,R) ch, ~192.00 kbps avg
Аудио #2: ENG: original 48 kHz, AC3 Dolby Digital, 2/0 (L,R) ch, ~192.00 kbps avg
Субтитры: Отсутствуют

s1e01. Изгои / Outcasts
s1e02. Появление Ног / Getting Legs
s1e03. Встреча с Ритой / Meeting Rta
s1e04. Лайла одна / Lyla Alone
s1e05. Снежная Буря / Blizzard
s1e06. Дельфиния сказка / Dolphin Tale
s1e07. Вечеринка у бассейна Зака / Zac's Pool Party
s1e08. Возвращение Зака на Мако / Zac's Return to Mako
s1e09. Сирена / The Siren
s1e10. Возвращение Зака на Мако / Zac Returns to Mako
s1e11. Я не верю в русалок / I Don't Believe in Mermaids
s1e12. Close Call / Сбросить
s1e13. Betrayal / Предательство
s1e14. Battlelines / Линия Фронта
s1e15. Sirena's Secret / Секрет Сирены
s1e16. Truce / Перемирие
s1e17. Moon Ring 2 / 2 лунное кольцо
s1e18. The Trident Job / Работа Trident
s1e19. Where's the on Button? / Где кнопка?
s1e20. Nowhere to Hide / Негде спрятаться
s1e21. Aquata Returns / Возвращение Акоты
s1e22. Evie Times Two / 2 Эви
s1e23. Zac's Choice / Выбор Зака
s1e24. Trust / Доверие
s1e25. Betrayed / Преданная
s1e26. Decision Time / Время решения

s01e14. Линия Фронта. rus.eng.Webdl.1080p.mkv
Format : Matroska
Format version : Version 2
File size : 951 MiB
Duration : 24mn 12s
Overall bit rate : 5 491 Kbps
Encoded date : UTC 2015-02-12 18:13:49
Writing application : mkvmerge v5.8.0 ('No Sleep / Pillow') built on Sep 2 2012 15:37:04
Writing library : libebml v1.2.3 + libmatroska v1.3.0

Video
ID : 1
Format : AVC
Format/Info : Advanced Video Codec
Format profile : High@L4
Format settings, CABAC : Yes
Format settings, ReFrames : 4 frames
Codec ID : V_MPEG4/ISO/AVC
Duration : 24mn 12s
Bit rate : 4 998 Kbps
Width : 1 920 pixels
Height : 1 080 pixels
Display aspect ratio : 16:9
Frame rate mode : Constant
Frame rate : 25.000 fps
Color space : YUV
Chroma subsampling : 4:2:0
Bit depth : 8 bits
Scan type : Progressive
Bits/(Pixel*Frame) : 0.096
Stream size : 865 MiB (91%)
Title : s01e14
Language : English
Default : Yes
Forced : No
Color range : Limited
Color primaries : BT.709
Transfer characteristics : BT.709
Matrix coefficients : BT.709

Audio #1
ID : 2
Format : AC-3
Format/Info : Audio Coding 3
Mode extension : CM (complete main)
Format settings, Endianness : Big
Codec ID : A_AC3
Duration : 24mn 12s
Bit rate mode : Constant
Bit rate : 192 Kbps
Channel(s) : 2 channels
Channel positions : Front: L R
Sampling rate : 48.0 KHz
Compression mode : Lossy
Stream size : 33.2 MiB (3%)
Title : Dub (Disney) / AC3 2.0 @ 192 kbps
Language : Russian
Default : Yes
Forced : No

Audio #2
ID : 3
Format : AC-3
Format/Info : Audio Coding 3
Mode extension : CM (complete main)
Format settings, Endianness : Big
Codec ID : A_AC3
Duration : 24mn 12s
Bit rate mode : Constant
Bit rate : 192 Kbps
Channel(s) : 2 channels
Channel positions : Front: L R
Sampling rate : 48.0 KHz
Compression mode : Lossy
Stream size : 33.2 MiB (3%)
Title : Original / AC3 2.0 @ 192 kbps
Language : English
Default : No
Forced : No



Скачать Тайны.острова.Мако.Mako.Mermaids.(сезон.01).(Грант.Браун.Ивэн.Кларри).[2015.фэнтези.комедия.приключения.WEB-DL].[1080p].[Dub.(Disney)]+[Eng].torrent без регистрации
Золото ЗОЛОТАЯ РАЗДАЧА! СКАЧАННОЕ НЕ ЗАСЧИТЫВАЕТСЯ! Золото
Дата: Зарегистрирован   [ Тип: внутренний ] Как тут cкачать?
MAGNET ссылка
MAGNET ссылка


Скачать .torrent

63 KB

Статус: проверено DHT
Скачан: торрент - 12 раз, раздача полностью - 0 раз
Размер: 23,78 GB
Оценка:  - (Голосов: 0)
Поблагодарили: 0
Поделиться ссылкой на эту раздачу с друзьями:
В контактеFacebookОдноклассникиTwitterLivejournalМой МирLiveinternet
 

 
Показать сообщения:    


Вы не можете начинать темы
Вы не можете отвечать на сообщения
Вы не можете редактировать свои сообщения
Вы не можете удалять свои сообщения
Вы не можете голосовать в опросах
Вы не можете прикреплять файлы к сообщениям
Вы можете скачивать файлы