Loading...
Error

Скачать Тайны острова Мако / Mako Mermaids (сезогы 01-03) (Ивэн Кларри, Грант Браун) [2013-2016, детский, молодежный, фэнтези, комедия, приключения, WEB-DLRip] [Dub (Disney)]+[MVO (Alt Pro)]+[Eng] торрент без регистрации

Статистика раздачи
Размер:  27,73 GB   |    Скачан:  19 раз
Сидов:  1  [  0 KB/s  ]  
 
 
 
Автор Сообщение

МихаНЕзатор

[] 

Информация о фильме
Название: Тайны острова Мако, (Секрет острова Мако), (Русалки Мако)
Оригинальное название: Mako Mermaids
Год выхода: 2013-2016
Страна: Австралия, Jonathan M. Shiff Productions
Жанр: детский, молодежный, фэнтези, комедия, приключения
Режиссер: Ивэн Кларри, Грант Браун

В ролях: Люси Фрай, Айви Латимер...
Ондина - Иззи (Изабел) Дюрант
Мимми - Элли Бертрам
Вейлан - Linda Ngo
Зак - Чай Ромруен
Эви - Джемма Форсайт
Кэм - Доминик Дойчер
Карли - Брук Николь Ли
Дэвид - Роуэн Хиллс
Крис - Тейлор Глокнер
Рита Сантос - Керит Эткинсон

О фильме: Сериал возвращает нас в уже знакомый лунный бассейн (из сериала: "H2O: Просто добавь воды"). Когда 15-летний Зак отправляется на пикник на остров Мако, то он даже не подозревает, что каждый его шаг внимательно отслеживается тремя русалками - Сиреной, Никси и Лилой, которые тщательно охраняют остров от постороннего вмешательства. Но в полнолуние Зак контактирует с водой из лунного пруда и обретает магические силы. Проснувшись утром дома, он обнаружил вместо ног плавник, а также способность управлять водой. Теперь Зак приносит немало сюрпризов для русалок с острова Мако... Русалки теперь должны стать людьми и найти Зака, чтобы отобрать его магические силы, или их исключат из сообщества русалок.

премьера (мир) 26 июля 2013, ...
премьера (РФ) 1 сентября 2014

Автор релиза:

Продолжительность: 26 + 26 + 16 x ~ 00:24:30
Сезон: 1,2,3
Перевод:
Сезоны 1+2: Дублировано студией "Кириллица" по заказу телеканала "Disney"
Сезон 3: Любительский многоголосый: Alternative Production (Alt Pro)

Файл
Качество: WEB-DLRip
Формат: AVI
Видео: 720x400 (1.80:1), 25 fps, XviD build 65 ~1999 kbps avg, 0.28 bit/pixel
Аудио #1: RUS: Dub (Disney) 48 kHz, AC3 Dolby Digital, 2/0 (L,R) ch, ~192.00 kbps avg - 1+2 сезоны
Аудио #2: RUS: MVO (Alt Pro) 48 kHz, AC3 Dolby Digital, 2/0 (L,R) ch, ~192.00 kbps avg - 3 сезон
Аудио #3: ENG: original 48 kHz, AC3 Dolby Digital, 2/0 (L,R) ch, ~192.00 kbps avg - все сезоны
Субтитры: Отсутствуют

АНОНСЫ ПОПУЛЯРНЫХ РАЗДАЧ

s1e01. Изгои
s1e02. Появление Ног
s1e03. Встреча с Ритой
s1e04. Лайла одна
s1e05. Снежная Буря
s1e06. Дельфиния сказка
s1e07. Вечеринка у бассейна Зака
s1e08. Возвращение Зака на Мако
s1e09. Сирена
s1e10. Возвращение Зака на Мако
s1e11. Я не верю в русалок
s1e12. Сбросить
s1e13. Предательство
s1e14. Линия Фронта
s1e15. Секрет Сирены
s1e16. Перемирие
s1e17. Второе лунное кольцо
s1e18. Трезубец
s1e19. Где кнопка_
s1e20. Негде спрятаться
s1e21. Возвращение Акоты
s1e22. Две Эви
s1e23. Выбор Зака
s1e24. Доверие
s1e25. Преданная
s1e26. Время решения

s2e01. Седьмой цикл
s2e02. Липкий случай
s2e03. Открытие
s2e04. Новый хвост
s2e05. Дело плохо
s2e06. Бушующее море
s2e07. Пробуждение
s2e08. Земная школа
s2e09. Безбилетник
s2e10. Сохраняя секрет
s2e11. Юность в душе
s2e12. Под контролем
s2e13. Воссоединение
s2e14. Новичок
s2e15. Поосторожнее с желаниями
s2e16. Первое свидание
s2e17. Тритонов код
s2e18. Сирена
s2e19. Сюрприз!
s2e20. Трудоустройство
s2e21. Новые приказы
s2e22. Последний танец за мной
s2e23. Останься или уходи
s2e24. Правда об Эви
s2e25. Камень Трезубца
s2e26. Избранный

s3e01. Визит с Востока
s3e02. Не поверишь, пока не увидишь
s3e03. Рецепт успеха
s3e04. Прочистка
s3e05. Магическая шкатулка
s3e06. Новые Начинания
s3e07. Неожиданный поворот
s3e08. Ход Дракона
s3e09. Удача Отвернулась
s3e10. Пустые Желания
s3e11. Найденная Потеря
s3e12. Проблема с доверием
s3e13. Умение отпускать
s3e14. Возраст превыше красоты
s3e15. Легенда Чаолонг
s3e16. Возвращение домой

s2e15. Поосторожнее с желаниями. D-XviD-merci-.avi
Format : AVI
Format/Info : Audio Video Interleave
File size : 416 MiB
Duration : 24 min 13 s
Overall bit rate : 2 399 kb/s
Writing application : VirtualDubMod 1.5.10.3 | www.virtualdub-fr.org || (build 2550/release)
Writing library : VirtualDubMod build 2550/release

Video
ID : 0
Format : MPEG-4 Visual
Format profile : Advanced Simple@L5
Format settings, BVOP : 1
Format settings, QPel : No
Format settings, GMC : No warppoints
Format settings, Matrix : Default (MPEG)
Codec ID : XVID
Codec ID/Hint : XviD
Duration : 24 min 13 s
Bit rate : 2 001 kb/s
Width : 720 pixels
Height : 400 pixels
Display aspect ratio : 16:9
Frame rate : 25.000 FPS
Color space : YUV
Chroma subsampling : 4:2:0
Bit depth : 8 bits
Scan type : Progressive
Compression mode : Lossy
Bits/(Pixel*Frame) : 0.278
Stream size : 347 MiB (83%)
Writing library : XviD 65

Audio #1
ID : 1
Format : AC-3
Format/Info : Audio Coding 3
Mode extension : CM (complete main)
Format settings, Endianness : Big
Codec ID : 2000
Duration : 24 min 13 s
Bit rate mode : Constant
Bit rate : 192 kb/s
Channel(s) : 2 channels
Channel positions : Front: L R
Sampling rate : 48.0 kHz
Frame rate : 31.250 FPS (1536 spf)
Bit depth : 16 bits
Compression mode : Lossy
Stream size : 33.3 MiB (8%)
Alignment : Split accross interleaves
Interleave, duration : 40 ms (1.00 video frame)
Interleave, preload duratio : 500 ms
Title : Dub

Audio #2
ID : 2
Format : AC-3
Format/Info : Audio Coding 3
Mode extension : CM (complete main)
Format settings, Endianness : Big
Codec ID : 2000
Duration : 24 min 13 s
Bit rate mode : Constant
Bit rate : 192 kb/s
Channel(s) : 2 channels
Channel positions : Front: L R
Sampling rate : 48.0 kHz
Frame rate : 31.250 FPS (1536 spf)
Bit depth : 16 bits
Compression mode : Lossy
Stream size : 33.3 MiB (8%)
Alignment : Split accross interleaves
Interleave, duration : 40 ms (1.00 video frame)
Interleave, preload duratio : 500 ms
Title : eng



Скачать Тайны.острова.Мако.Mako.Mermaids.(сезогы.01-03).(Ивэн.Кларри.Грант.Браун).[2013-2016.детский.молодежный.фэнтези.комедия.приключения.WEB-DLRip].[Dub.(Disney)]+[MVO.(Alt.Pro)]+[Eng].torrent без регистрации
Золото ЗОЛОТАЯ РАЗДАЧА! СКАЧАННОЕ НЕ ЗАСЧИТЫВАЕТСЯ! Золото
Дата: Зарегистрирован   [ Тип: внутренний ] Как тут cкачать?
MAGNET ссылка
MAGNET ссылка


Скачать .torrent

146 KB

Статус: проверено DHT
Скачан: торрент - 19 раз, раздача полностью - 2 раз
Размер: 27,73 GB
Оценка:  - (Голосов: 0)
Поблагодарили: 1
Поделиться ссылкой на эту раздачу с друзьями:
В контактеFacebookОдноклассникиTwitterLivejournalМой МирLiveinternet
 

 
Показать сообщения:    


Вы не можете начинать темы
Вы не можете отвечать на сообщения
Вы не можете редактировать свои сообщения
Вы не можете удалять свои сообщения
Вы не можете голосовать в опросах
Вы не можете прикреплять файлы к сообщениям
Вы можете скачивать файлы