Loading...
Error

Скачать Лучше звоните Солу / Better Call Saul (Сезон 03) (Колин Бакси, Адам Бернштейн) [2017, драма, комедия, криминал, WEB-DLRip] [MVO] (NewStudio) + [Orig] торрент без регистрации

Статистика раздачи
Размер:  6,18 GB   |    Скачан:  140 раз
Сидов:  1  [  0 KB/s  ]  
 
 
 
Автор Сообщение

leon030982

[] 

Лучше звоните Солу
Better Call Saul

Год выпуска: 2017
Страна: США
Жанр: драма, комедия, криминал
Продолжительность: 00:53:00
Перевод: Профессиональный (многоголосый, закадровый) (NewStudio)
Субтитры: отсутствуют

Режиссер: Колин Бакси / Colin Bucksey, Адам Бернштейн / Adam Bernstein, Винс Гиллиган / Vince Gilligan

В ролях:
Боб Оденкёрк (Saul Goodman), Ри Сихорн (Kim Wexler), Патрик Фабиан (Howard Hamlin), Майкл МакКин (Chuck McGill), Майкл Мэндо (Nacho Varga), Джонатан Бэнкс (Mike Ehrmantraut), Ген Н. Чавес (HHM Attorney), Alan Humphrey (Lawyer), Джил Мюррэй (HHM Attorney), Brian Barela (HHM Staff), Тим Чайлдресс (HHM Attorney), Хавьер Грайеда (Juan Bolsa)


История об испытаниях и невзгодах, которые приходится преодолеть Солу Гудману, адвокату по уголовным делам, в тот период, когда он пытается открыть свою собственную адвокатскую контору в Альбукерке, штат Нью-Мексико.


Релиз:
Перевод: Григорий Сенин
Качество: WEB-DLRip
Контейнер: AVI
Видео: 720x400 (1.80:1), 23.976 fps, XviD build 64 ~1400 kbps avg, 0.205 bit/pixel
Аудио №1: 48 kHz, MPEG Layer 3, 2 ch, ~128 kbps avg
Аудио №2: 48 kHz, MPEG Layer 3, 2 ch, ~128 kbps avg
General
Complete name : E:\Лучше звоните Солу (сезон 3) Better Call Saul (2017) WEB-DLRip - NewStudio\Better.Call.Saul.S03E01.WEB-DLRip.Rus.Eng.DV.NewStudio.avi
Format : AVI
Format/Info : Audio Video Interleave
File size : 652 MiB
Duration : 51mn 56s
Overall bit rate : 1 754 Kbps
Movie name : Better.Call.Saul.S03E01.WEB-DLRip.Rus.Eng.DV.NewStudio
Writing application : VirtualDubModRus 1.5.10.2 (build 2542/release)
Writing library : VirtualDubMod build 2542/release

Video
ID : 0
Format : MPEG-4 Visual
Format profile : Advanced Simple@L5
Format settings, BVOP : 2
Format settings, QPel : No
Format settings, GMC : No warppoints
Format settings, Matrix : Default (H.263)
Codec ID : XVID
Codec ID/Hint : XviD
Duration : 51mn 56s
Bit rate : 1 418 Kbps
Width : 720 pixels
Height : 400 pixels
Display aspect ratio : 16:9
Frame rate : 23.976 fps
Color space : YUV
Chroma subsampling : 4:2:0
Bit depth : 8 bits
Scan type : Progressive
Compression mode : Lossy
Bits/(Pixel*Frame) : 0.205
Stream size : 527 MiB (81%)
Title : Rip by DriverV
Writing library : XviD 64

Audio #1
ID : 1
Format : MPEG Audio
Format version : Version 1
Format profile : Layer 3
Mode : Joint stereo
Mode extension : MS Stereo
Codec ID : 55
Codec ID/Hint : MP3
Duration : 51mn 56s
Bit rate mode : Constant
Bit rate : 128 Kbps
Channel(s) : 2 channels
Sampling rate : 48.0 KHz
Compression mode : Lossy
Stream size : 47.5 MiB (7%)
Alignment : Aligned on interleaves

Audio #2
ID : 2
Format : MPEG Audio
Format version : Version 1
Format profile : Layer 3
Mode : Joint stereo
Mode extension : MS Stereo
Codec ID : 55
Codec ID/Hint : MP3
Duration : 51mn 56s
Bit rate mode : Constant
Bit rate : 128 Kbps
Channel(s) : 2 channels
Sampling rate : 48.0 KHz
Compression mode : Lossy
Stream size : 47.5 MiB (7%)
Alignment : Aligned on interleaves

Внимание! Раздача ведётся путём добавления новых серий; при каждом добавлении создаётся новый торрент. Чтобы начать докачку новой серии, пользователям необходимо сделать следующее: (1) остановить скачивание, (2) удалить старый торрент у себя из клиента (старые серии удалять не надо), (3) скачать новый торрент и запустить его у себя в клиенте вместо старого, при этом указать клиенту путь в старую папку куда и должно происходить скачивание новых серий.
Ваш клиент при этом должен произвести хеширование (проверку) старой папки (если не производит сам - помогите ему сделать это), и будет докачивать только те серии которых у вас ещё нет. Старые серии при этом не удаляются, а продолжают раздаваться!
Eсли вы уже удалили старые серии, то предотвратить повторную закачку старых серий можно, отжав галочку в соответствующих местах при запуске нового торрента.
"]




Скачать Лучше.звоните.Солу.Better.Call.Saul.(Сезон.03).(Колин.Бакси.Адам.Бернштейн).[2017.драма.комедия.криминал.WEB-DLRip].[MVO].(NewStudio).+.[Orig].torrent без регистрации
Золото ЗОЛОТАЯ РАЗДАЧА! СКАЧАННОЕ НЕ ЗАСЧИТЫВАЕТСЯ! Золото
Дата: Зарегистрирован   [ Тип: внутренний ] Как тут cкачать?
MAGNET ссылка
MAGNET ссылка


Скачать .torrent

17 KB

Статус: проверено DHT
Скачан: торрент - 140 раз, раздача полностью - 3 раз
Размер: 6,18 GB
Оценка:  - (Голосов: 0)
Поблагодарили: 1
Поделиться ссылкой на эту раздачу с друзьями:
В контактеFacebookОдноклассникиTwitterLivejournalМой МирLiveinternet
 

 
Показать сообщения:    


Вы не можете начинать темы
Вы не можете отвечать на сообщения
Вы не можете редактировать свои сообщения
Вы не можете удалять свои сообщения
Вы не можете голосовать в опросах
Вы не можете прикреплять файлы к сообщениям
Вы можете скачивать файлы