Loading...
Error

Скачать Легенды осени / Legends of the Fall (Эдвард Цвик) [1994, драма, мелодрама, вестерн, военный, BDRip] [720p] [Dub]+[MVO]x2+[DVO]+[AVO]x4+[Eng]+[Sub]x4 торрент без регистрации

Статистика раздачи
Размер:  9,78 GB   |    Скачан:  16 раз
Сидов:  1  [  0 KB/s  ]  
 
 
 
Автор Сообщение

Marsianka

[] 

Легенды осени / Legends of the Fall

«The men of the Ludlow family. A woman's grace brought them together. Then her passion tore them apart»

Русское название: Легенды осени
Оригинальное название: Legends of the Fall
Год выпуска: 1994
Жанр: драма, мелодрама, вестерн, военный
Выпущено: США
Режиссер: Эдвард Цвик

В ролях: Брэд Питт , Энтони Хопкинс , Эйдан Куинн , Джулия Ормонд , Генри Томас , Карина Ломбард , Танту Кардинал , Гордон Тутусис , Пол Десмонд , Кристина Пиклз , Роберт Уизден , Джон Новак
Перевод: Дублированный, Профессиональный многоголосый, Профессиональный (двухголосый), Авторский (одноголосый)

Сюжет фильма: «Некоторые люди очень ясно слышат свой внутренний голос, и живут так, как он им подсказывает. Такие люди сходят с ума. Или становятся легендами». Так начинается история семьи Ладлоу - стремительный и романтический рассказ о трех братьях, их отце и молодой и неотразимой женщине, которая роковым образом изменяет жизнь каждого из них.
С детства трое братьев неразлучны, однако они еще не подозревают, по какой тропе страстей и насилия поведет жизнь каждого из них.
Сквозь ужасы Первой Мировой, сквозь потерянные годы, последовавшие за войной, через любовь и потери, предательство и надежду. И в центре всегда оказывался недосягаемый, непредсказуемый Тристан.

Релиз от:

Качество: BDRip 720p
Формат: AVC (библиотека кодирования x.264)
Контейнер (Расширение): MKV
Видео: 1280x694, 6700 Кбит/сек, 23,976 кадр/сек, 0,315 Бит/[Пиксели*Кадры]
Аудио №1: русский / AC3 / 5.1 / 48 kHz / 640 kbps / 16 bit |Дублированный|
Аудио №2: русский / AC3 / 5.1 / 48 kHz / 384 kbps / 16 bit |Профессиональный многоголосый|
Аудио №3: русский / AC3 / 2.0 / 48 kHz / 192 kbps / 16 bit |Профессиональный многоголосый, ОРТ|
Аудио №4: русский / AC3 / 5.1 / 48 kHz / 448 kbps / 16 bit |Профессиональный двухголосый|
Аудио №5: русский / AC3 / 5.1 / 48 kHz / 448 kbps / 16 bit |Авторский одноголосый (Живов)|
Аудио №6: русский / AC3 / 2.0 / 48 kHz / 192 kbps / 16 bit |Авторский одноголосый (Гаврилов - ранний)|
Аудио №7: русский / AC3 / 5.1 / 48 kHz / 448 kbps / 16 bit |Авторский одноголосый (Гаврилов - поздний)|
Аудио №8: русский / AC3 / 5.1 / 48 kHz / 448 kbps / 16 bit |Авторский одноголосый (Визгунов)|
Аудио №9: английский / AC3 / 5.1 / 48 kHz / 640 kbps /
Субтитры: русские (full), русские (forced), русские (DVO_forced), английские (full)
Навигация по главам(Чаптеры): есть
Продолжительность: 02:12:49

Видеоряд EbP

АНОНСЫ ПОПУЛЯРНЫХ РАЗДАЧ

Format : Matroska
Format version : Version 2
File size : 9.78 GiB
Duration : 2h 12mn
Overall bit rate : 10.5 Mbps
Movie name : Legendy oseni.(1994).BDRip.720p.[denis100]
Encoded date : UTC 2015-06-03 07:30:16
Writing application : mkvmerge v5.8.0 ('No Sleep / Pillow') built on Sep 2 2012 15:37:04
Writing library : libebml v1.2.3 + libmatroska v1.3.0

Video
ID : 1
Format : AVC
Format/Info : Advanced Video Codec
Format profile : High@L4.1
Format settings, CABAC : Yes
Format settings, ReFrames : 9 frames
Codec ID : V_MPEG4/ISO/AVC
Duration : 2h 12mn
Bit rate : 6 700 Kbps
Width : 1 280 pixels
Height : 694 pixels
Display aspect ratio : 16:9
Frame rate : 23.976 fps
Color space : YUV
Chroma subsampling : 4:2:0
Bit depth : 8 bits
Scan type : Progressive
Bits/(Pixel*Frame) : 0.315
Stream size : 6.03 GiB (62%)
Title : Legendy oseni.(1994).BDRip.720p.[denis100]
Writing library : x264 core 112 r1867 22bfd31
Encoding settings : cabac=1 / ref=9 / deblock=1:-3:-3 / analyse=0x3:0x113 / me=umh / subme=10 / psy=1 / psy_rd=1.20:0.10 / mixed_ref=1 / me_range=16 / chroma_me=1 / trellis=2 / 8x8dct=1 / cqm=0 / deadzone=21,11 / fast_pskip=0 / chroma_qp_offset=-3 / threads=3 / sliced_threads=0 / nr=0 / decimate=0 / interlaced=0 / constrained_intra=0 / bframes=7 / b_pyramid=2 / b_adapt=2 / b_bias=0 / direct=3 / weightb=1 / open_gop=0 / weightp=2 / keyint=250 / keyint_min=23 / scenecut=40 / intra_refresh=0 / rc=2pass / mbtree=0 / bitrate=6700 / ratetol=1.0 / qcomp=0.70 / qpmin=0 / qpmax=51 / qpstep=4 / cplxblur=20.0 / qblur=0.5 / ip_ratio=1.40 / pb_ratio=1.20 / aq=1:0.75
Language : English
Default : Yes
Forced : No

Audio #1
ID : 2
Format : AC-3
Format/Info : Audio Coding 3
Mode extension : CM (complete main)
Codec ID : A_AC3
Duration : 2h 12mn
Bit rate mode : Constant
Bit rate : 640 Kbps
Channel(s) : 6 channels
Channel positions : Front: L C R, Side: L R, LFE
Sampling rate : 48.0 KHz
Bit depth : 16 bits
Compression mode : Lossy
Stream size : 608 MiB (6%)
Title : Дублированный
Language : Russian
Default : Yes
Forced : No

Audio #2
ID : 3
Format : AC-3
Format/Info : Audio Coding 3
Mode extension : CM (complete main)
Codec ID : A_AC3
Duration : 2h 12mn
Bit rate mode : Constant
Bit rate : 384 Kbps
Channel(s) : 6 channels
Channel positions : Front: L C R, Side: L R, LFE
Sampling rate : 48.0 KHz
Bit depth : 16 bits
Compression mode : Lossy
Stream size : 365 MiB (4%)
Title : Профессиональный многоголосый
Language : Russian
Default : No
Forced : No

Audio #3
ID : 4
Format : AC-3
Format/Info : Audio Coding 3
Mode extension : CM (complete main)
Codec ID : A_AC3
Duration : 2h 12mn
Bit rate mode : Constant
Bit rate : 192 Kbps
Channel(s) : 2 channels
Channel positions : Front: L R
Sampling rate : 48.0 KHz
Bit depth : 16 bits
Compression mode : Lossy
Stream size : 182 MiB (2%)
Title : Профессиональный многоголосый, ОРТ
Language : Russian
Default : No
Forced : No

Audio #4
ID : 5
Format : AC-3
Format/Info : Audio Coding 3
Mode extension : CM (complete main)
Codec ID : A_AC3
Duration : 2h 12mn
Bit rate mode : Constant
Bit rate : 448 Kbps
Channel(s) : 6 channels
Channel positions : Front: L C R, Side: L R, LFE
Sampling rate : 48.0 KHz
Bit depth : 16 bits
Compression mode : Lossy
Stream size : 426 MiB (4%)
Title : Профессиональный двухголосый
Language : Russian
Default : No
Forced : No

Audio #5
ID : 6
Format : AC-3
Format/Info : Audio Coding 3
Mode extension : CM (complete main)
Codec ID : A_AC3
Duration : 2h 12mn
Bit rate mode : Constant
Bit rate : 448 Kbps
Channel(s) : 6 channels
Channel positions : Front: L C R, Side: L R, LFE
Sampling rate : 48.0 KHz
Bit depth : 16 bits
Compression mode : Lossy
Stream size : 426 MiB (4%)
Title : Авторский одноголосый (Живов)
Language : Russian
Default : No
Forced : No

Audio #6
ID : 7
Format : AC-3
Format/Info : Audio Coding 3
Format profile : Dolby Digital
Mode extension : CM (complete main)
Codec ID : A_AC3
Duration : 2h 12mn
Bit rate mode : Constant
Bit rate : 192 Kbps
Channel(s) : 2 channels
Channel positions : Front: L R
Sampling rate : 48.0 KHz
Bit depth : 16 bits
Compression mode : Lossy
Stream size : 182 MiB (2%)
Title : Авторский одноголосый (Гаврилов - ранний)
Language : Russian
Default : No
Forced : No

Audio #7
ID : 8
Format : AC-3
Format/Info : Audio Coding 3
Mode extension : CM (complete main)
Codec ID : A_AC3
Duration : 2h 12mn
Bit rate mode : Constant
Bit rate : 448 Kbps
Channel(s) : 6 channels
Channel positions : Front: L C R, Side: L R, LFE
Sampling rate : 48.0 KHz
Bit depth : 16 bits
Compression mode : Lossy
Stream size : 426 MiB (4%)
Title : Авторский одноголосый (Гаврилов - поздний)
Language : Russian
Default : No
Forced : No

Audio #8
ID : 9
Format : AC-3
Format/Info : Audio Coding 3
Mode extension : CM (complete main)
Codec ID : A_AC3
Duration : 2h 12mn
Bit rate mode : Constant
Bit rate : 448 Kbps
Channel(s) : 6 channels
Channel positions : Front: L C R, Side: L R, LFE
Sampling rate : 48.0 KHz
Bit depth : 16 bits
Compression mode : Lossy
Stream size : 426 MiB (4%)
Title : Авторский одноголосый (Визгунов)
Language : Russian
Default : No
Forced : No

Audio #9
ID : 10
Format : AC-3
Format/Info : Audio Coding 3
Mode extension : CM (complete main)
Codec ID : A_AC3
Duration : 2h 12mn
Bit rate mode : Constant
Bit rate : 640 Kbps
Channel(s) : 6 channels
Channel positions : Front: L C R, Side: L R, LFE
Sampling rate : 48.0 KHz
Bit depth : 16 bits
Compression mode : Lossy
Stream size : 608 MiB (6%)
Language : English
Default : No
Forced : No

Text #1
ID : 11
Format : UTF-8
Codec ID : S_TEXT/UTF8
Codec ID/Info : UTF-8 Plain Text
Title : full
Language : Russian
Default : No
Forced : No

Text #2
ID : 12
Format : UTF-8
Codec ID : S_TEXT/UTF8
Codec ID/Info : UTF-8 Plain Text
Title : forced
Language : Russian
Default : No
Forced : No

Text #3
ID : 13
Format : UTF-8
Codec ID : S_TEXT/UTF8
Codec ID/Info : UTF-8 Plain Text
Title : DVO_forced
Language : Russian
Default : No
Forced : No

Text #4
ID : 14
Format : UTF-8
Codec ID : S_TEXT/UTF8
Codec ID/Info : UTF-8 Plain Text
Title : full
Language : English
Default : No
Forced : No

Menu
00:00:00.000 : :Chapter 1
00:08:01.772 : :Chapter 2
00:15:00.941 : :Chapter 3
00:25:26.233 : :Chapter 4
00:34:06.044 : :Chapter 5
00:39:51.931 : :Chapter 6
00:50:03.458 : :Chapter 7
00:56:47.779 : :Chapter 8
01:05:58.245 : :Chapter 9
01:12:04.028 : :Chapter 10
01:22:04.336 : :Chapter 11
01:30:28.381 : :Chapter 12
01:37:19.667 : :Chapter 13
01:41:59.363 : :Chapter 14
01:53:30.512 : :Chapter 15
02:00:28.429 : :Chapter 16



Скачать Легенды.осени.Legends.of.the.Fall.(Эдвард.Цвик).[1994.драма.мелодрама.вестерн.военный.BDRip].[720p].[Dub]+[MVO]x2+[DVO]+[AVO]x4+[Eng]+[Sub]x4.torrent без регистрации
Золото ЗОЛОТАЯ РАЗДАЧА! СКАЧАННОЕ НЕ ЗАСЧИТЫВАЕТСЯ! Золото
Дата: Зарегистрирован   [ Тип: внутренний ] Как тут cкачать?
MAGNET ссылка
MAGNET ссылка


Скачать .torrent

50 KB

Статус: проверено DHT
Скачан: торрент - 16 раз, раздача полностью - 5 раз
Размер: 9,78 GB
Оценка:  - (Голосов: 0)
Поблагодарили: 1
Поделиться ссылкой на эту раздачу с друзьями:
В контактеFacebookОдноклассникиTwitterLivejournalМой МирLiveinternet
 

 
Показать сообщения:    


Вы не можете начинать темы
Вы не можете отвечать на сообщения
Вы не можете редактировать свои сообщения
Вы не можете удалять свои сообщения
Вы не можете голосовать в опросах
Вы не можете прикреплять файлы к сообщениям
Вы можете скачивать файлы