Loading...
Error

Скачать Рассказ служанки / The Handmaid's Tale (Сезон 01) (Рид Морано, Майк Баркер) [2017, Фантастика, драма, WEBRip] [1080p] [MVO] (SDI Media) + [Orig] + [Subs] (Eng) торрент без регистрации

Статистика раздачи
Размер:  19,88 GB   |    Скачан:  63 раза
Сидов:  1  [  12 KB/s  ]  

 
 
 
Автор Сообщение

leon030982

[] 

Рассказ служанки / The Handmaid's Tale



Год выпуска: 2017
Страна: США
Жанр: Фантастика, драма
Продолжительность: 00:55:00
Перевод: Профессиональный (многоголосый закадровый) SDI Media

Режиссёр: Рид Морано, Майк Баркер

В ролях: Элизабет Мосс, Джозеф Файнс, Самира Уайли, Ивонн Страховски, Макс Мингелла, Энн Дауд, Джордана Блейк, Алексис Бледел, О. Т. Фагбенли, Аманда Бругел

Описание: Действие разворачивается в республике Гилеад, где у власти стоят военные. В стране жестокие порядки и нравы, уважением в обществе пользуются только офицеры и их жены. Но по никому неизвестным причинам у жен офицеров не рождаются дети. Чтобы продолжить офицерский род, офицеры и их жены выбирают из числа простых девушек ту, которая будет вынашивать их будущего ребенка. Молодые девушки, носители офицерских отпрысков, живут в специальных охраняемых помещениях, больше всего напоминающих тюрьму, и знают, что сразу после родов им придется расстаться со своими детьми.


Качество: WEBRip 1080p
Контейнер: MKV
Видео: AVC, 1920x1080 (16:9), 23.976 fps ~5200 kbps
Аудио 1: AC3, 48 kHz, 2 ch, 192 kbps Русский
Аудио 2: E-AC3, 48 kHz, 6 ch, 384 kbps Английский
Субтитры: Английские

Реклама:Отсутствует
Khoren2013

Перевод: Профессиональный (многоголосый закадровый) SDI Media
General
Unique ID : 175187447514140569810595421250924124689 (0x83CBE006DEAC2E94A05CE23629151A11)
Complete name : E:\Torrent\The.Handmaid's.Tale.S01.1080p.HULU.WEBRip\The.Handmaid's.Tale.S01E01.Offred.1080p.HULU.WEBRip.H.264.mkv
Format : Matroska
Format version : Version 4 / Version 2
File size : 2.32 GiB
Duration : 57 min 25 s
Overall bit rate : 5 790 kb/s
Encoded date : UTC 2017-04-27 20:45:37
Writing application : mkvmerge v11.0.0 ('Alive') 64bit
Writing library : libebml v1.3.4 + libmatroska v1.4.5

Video
ID : 1
Format : AVC
Format/Info : Advanced Video Codec
Format profile : High@L4
Format settings, CABAC : Yes
Format settings, ReFrames : 4 frames
Codec ID : V_MPEG4/ISO/AVC
Duration : 57 min 25 s
Bit rate : 5 212 kb/s
Width : 1 920 pixels
Height : 1 080 pixels
Display aspect ratio : 16:9
Frame rate mode : Constant
Frame rate : 23.976 (24000/1001) FPS
Color space : YUV
Chroma subsampling : 4:2:0
Bit depth : 8 bits
Scan type : Progressive
Bits/(Pixel*Frame) : 0.105
Stream size : 2.09 GiB (90%)
Language : English
Default : Yes
Forced : No

Audio #1
ID : 2
Format : AC-3
Format/Info : Audio Coding 3
Format settings, Endianness : Big
Codec ID : A_AC3
Duration : 57 min 25 s
Bit rate mode : Constant
Bit rate : 192 kb/s
Channel(s) : 2 channels
Channel positions : Front: L R
Sampling rate : 48.0 kHz
Frame rate : 31.250 FPS (1536 spf)
Bit depth : 16 bits
Compression mode : Lossy
Stream size : 78.9 MiB (3%)
Language : Russian
Service kind : Complete Main
Default : Yes
Forced : No

Audio #2
ID : 3
Format : E-AC-3
Format/Info : Enhanced Audio Coding 3
Format settings, Endianness : Big
Codec ID : A_EAC3
Duration : 57 min 25 s
Bit rate mode : Constant
Bit rate : 384 kb/s
Channel(s) : 6 channels
Channel positions : Front: L C R, Side: L R, LFE
Sampling rate : 48.0 kHz
Frame rate : 187.500 FPS (256 spf)
Compression mode : Lossy
Stream size : 158 MiB (7%)
Language : English
Service kind : Complete Main
Default : No
Forced : No

Text
ID : 4
Format : UTF-8
Codec ID : S_TEXT/UTF8
Codec ID/Info : UTF-8 Plain Text
Duration : 57 min 11 s
Bit rate : 43 b/s
Count of elements : 730
Stream size : 18.0 KiB (0%)
Language : English
Default : No
Forced : No
Внимание! Раздача ведётся путём добавления новых серий; при каждом добавлении создаётся новый торрент. Чтобы начать докачку новой серии, пользователям необходимо сделать следующее:
(1) остановить скачивание,
(2) удалить старый торрент у себя из клиента (старые серии удалять не надо),
(3) скачать новый торрент и запустить его у себя в клиенте вместо старого, при этом указать клиенту путь в старую папку куда и должно происходить скачивание новых серий.

Ваш клиент при этом должен произвести хеширование (проверку) старой папки (если не производит сам - помогите ему сделать это), и будет докачивать только те серии которых у вас ещё нет. Старые серии при этом не удаляются, а продолжают раздаваться!

Eсли вы уже удалили старые серии, то предотвратить повторную закачку старых серий можно, отжав галочку в соответствующих местах при запуске нового торрента. По возможности, желательно не удалять старые серии как можно дольше чтобы релизёр не столько продолжал раздавать старые серии, а смог сконцентрироваться на новых.




Скачать Рассказ.служанки.The.Handmaid's.Tale.(Сезон.01).(Рид.Морано.Майк.Баркер).[2017.Фантастика.драма.WEBRip].[1080p].[MVO].(SDI.Media).+.[Orig].+.[Subs].(Eng).torrent без регистрации
Золото ЗОЛОТАЯ РАЗДАЧА! СКАЧАННОЕ НЕ ЗАСЧИТЫВАЕТСЯ! Золото
Дата: Зарегистрирован   [ Тип: внутренний ] Как тут cкачать?
MAGNET ссылка
MAGNET ссылка


Скачать .torrent

51 KB

Статус: проверено DHT
Скачан: торрент - 63 раз, раздача полностью - 52 раз
Размер: 19,88 GB
Оценка:  1 (Голосов: 1)
Поблагодарили: 1
Поделиться ссылкой на эту раздачу с друзьями:
В контактеFacebookОдноклассникиTwitterLivejournalМой МирLiveinternet
 

 
Показать сообщения:    


Вы не можете начинать темы
Вы не можете отвечать на сообщения
Вы не можете редактировать свои сообщения
Вы не можете удалять свои сообщения
Вы не можете голосовать в опросах
Вы не можете прикреплять файлы к сообщениям
Вы можете скачивать файлы