Loading...
Error

Скачать Оно / It (Томми Ли Уоллес) [1990, мистика, триллер, драма, BDRip-HEVC] [1080p] [Dub] торрент без регистрации

Статистика раздачи
Размер:  8,62 GB   |    Скачан:  47 раз
Сидов:  1  [  0 KB/s  ]  
 
 
 
Автор Сообщение

Marsianka

[] 

Информация о фильме
Название: Оно
Оригинальное название: It
Год выхода: 1990
Жанр: мистика, триллер, драма
Режиссер: Томми Ли Уоллес
В ролях: Тим Карри, Гарри Андерсон, Деннис Кристофер, Ричард Мейсер, Аннетт О’Тул, Тим Рейд, Джон Риттер, Ричард Томас, Сет Грин, Джонатан Брэндис

О фильме:
Из царства смерти появилось новое леденящее воплощение ужаса. ОНО притаилось в тени повсюду. И вот несколько школьных друзей, возвращаясь домой, должны встретиться с ЭТИМ лицом к лицу.
ОНО знает все их страхи, как бы глубоко запрятаны они ни были, ОНО черпает силу из ненависти и разочарования. Существо, не имеющее названия и четкой формы, питающееся тем гадким и злым, что притаилось в них.



Страна: США, Канада
Студия: Green/Epstein Productions, Konigsberg/Sanitsky Company, Lorimar Television
Продолжительность: 03:07:25
Перевод: Дубляж Варус Видео (Remastered by Shewa1) - полностью реставрированная дорожка, реальный стереозвук

Файл
Кодек: H.265/HEVC
Качество: BDRip-HEVC 1080p
Видео: 1440x1080 px, ~5760 kb/s (avg), 23,976 fps

Русский AC3, 256 kbps, 2.0 ch, 16 bits
Английский DTS, 447 kbps, 2.0 ch, 24 bits (DTS-HD MA Core без MLP данных) - отдельным файлом
Субтитры: Нет
Семпл
General
Unique ID : 194892289592205514271906205855737540098 (0x929EE3BFD0169E13BE2ECA7089B96E02)
Complete name : It (1990) 1080p HEVC.mkv
Format : Matroska
Format version : Version 2
File size : 8.04 GiB
Duration : 3 h 7 min
Overall bit rate : 6 138 kb/s
Movie name : It (1990) 1080p
Encoded date : UTC 2017-05-04 18:48:39
Writing application : mkvmerge v11.0.0 ('Alive') 64bit
Writing library : libebml v1.3.4 + libmatroska v1.4.5

Video
ID : 1
Format : HEVC
Format/Info : High Efficiency Video Coding
Format profile : Main 10@L4.1@High
Codec ID : V_MPEGH/ISO/HEVC
Duration : 3 h 7 min
Bit rate : 5 760 kb/s
Width : 1 440 pixels
Height : 1 080 pixels
Display aspect ratio : 4:3
Frame rate mode : Constant
Frame rate : 23.976 (24000/1001) FPS
Color space : YUV
Chroma subsampling : 4:2:0
Bit depth : 10 bits
Bits/(Pixel*Frame) : 0.154
Stream size : 7.54 GiB (94%)
Writing library : x265 2.4+2-5bc5e73760cd:[Windows][GCC 7.0.1][64 bit] 10bit
Encoding settings : cpuid=1050111 / frame-threads=3 / numa-pools=8 / wpp / no-pmode / no-pme / no-psnr / no-ssim / log-level=2 / input-csp=1 / input-res=1440x1080 / interlace=0 / total-frames=0 / level-idc=41 / high-tier=1 / uhd-bd=0 / ref=1 / no-allow-non-conformance / no-repeat-headers / annexb / no-aud / no-hrd / info / hash=0 / no-temporal-layers / open-gop / min-keyint=24 / keyint=240 / bframes=4 / b-adapt=2 / b-pyramid / bframe-bias=0 / rc-lookahead=60 / lookahead-slices=0 / scenecut=40 / no-intra-refresh / ctu=32 / min-cu-size=8 / no-rect / no-amp / max-tu-size=16 / tu-inter-depth=1 / tu-intra-depth=1 / limit-tu=0 / rdoq-level=2 / dynamic-rd=4.00 / no-ssim-rd / signhide / no-tskip / nr-intra=0 / nr-inter=0 / no-constrained-intra / no-strong-intra-smoothing / max-merge=2 / limit-refs=0 / no-limit-modes / me=3 / subme=7 / merange=57 / temporal-mvp / weightp / weightb / no-analyze-src-pics / no-deblock / no-sao / no-sao-non-deblock / rd=3 / early-skip / no-rskip / no-fast-intra / no-tskip-fast / no-cu-lossless / no-b-intra / rdpenalty=0 / psy-rd=2.00 / psy-rdoq=1.00 / no-rd-refine / analysis-mode=0 / no-lossless / cbqpoffs=0 / crqpoffs=0 / rc=crf / crf=23.0 / qcomp=0.80 / qpstep=1 / stats-write=0 / stats-read=0 / vbv-maxrate=50000 / vbv-bufsize=50000 / vbv-init=0.9 / crf-max=0.0 / crf-min=0.0 / ipratio=1.20 / pbratio=1.10 / aq-mode=3 / aq-strength=0.90 / no-cutree / zone-count=0 / no-strict-cbr / qg-size=16 / no-rc-grain / qpmax=51 / qpmin=0 / sar=1 / overscan=0 / videoformat=5 / range=0 / colorprim=1 / transfer=1 / colormatrix=1 / chromaloc=0 / display-window=0 / max-cll=0,0 / min-luma=0 / max-luma=1023 / log2-max-poc-lsb=8 / vui-timing-info / vui-hrd-info / slices=1 / opt-qp-pps / opt-ref-list-length-pps / no-multi-pass-opt-rps / scenecut-bias=0.05 / no-opt-cu-delta-qp / aq-motion / no-hdr / no-hdr-opt / no-dhdr10-opt / refine-level=5 / no-limit-sao
Default : Yes
Forced : No
Color range : Limited
Color primaries : BT.709
Transfer characteristics : BT.709
Matrix coefficients : BT.709

Audio
ID : 2
Format : AC-3
Format/Info : Audio Coding 3
Format settings, Endianness : Big
Codec ID : A_AC3
Duration : 3 h 7 min
Bit rate mode : Constant
Bit rate : 256 kb/s
Channel(s) : 2 channels
Channel positions : Front: L R
Sampling rate : 48.0 kHz
Frame rate : 31.250 FPS (1536 spf)
Bit depth : 16 bits
Compression mode : Lossy
Stream size : 343 MiB (4%)
Title : Дубляж Варус Видео (Remastered by Shewa1)
Language : Russian
Service kind : Complete Main
Default : Yes
Forced : Yes

Menu
00:00:00.000 : :Chapter 1
00:04:49.623 : :Chapter 2
00:07:52.138 : :Chapter 3
00:10:07.273 : :Chapter 4
00:12:29.415 : :Chapter 5
00:16:22.648 : :Chapter 6
00:19:51.857 : :Chapter 7
00:27:42.995 : :Chapter 8
00:30:57.856 : :Chapter 9
00:35:50.148 : :Chapter 10
00:38:36.981 : :Chapter 11
00:40:49.113 : :Chapter 12
00:43:49.961 : :Chapter 13
00:48:29.573 : :Chapter 14
00:52:31.148 : :Chapter 15
00:57:29.112 : :Chapter 16
00:58:43.520 : :Chapter 17
01:01:18.008 : :Chapter 18
01:02:49.766 : :Chapter 19
01:08:36.446 : :Chapter 20
01:13:05.715 : :Chapter 21
01:17:18.968 : :Chapter 22
01:21:13.535 : :Chapter 23
01:26:45.867 : :Chapter 24
01:28:33.642 : :Chapter 25
01:29:40.041 : :Chapter 26
01:32:25.540 : :Chapter 27
01:33:58.967 : :Chapter 28
01:39:33.634 : :Chapter 29
01:42:30.144 : :Chapter 30
01:44:02.570 : :Chapter 31
01:47:32.780 : :Chapter 32
01:50:42.302 : :Chapter 33
01:56:51.004 : :Chapter 34
02:04:54.821 : :Chapter 35
02:05:52.545 : :Chapter 36
02:08:31.704 : :Chapter 37
02:14:54.420 : :Chapter 38
02:18:11.617 : :Chapter 39
02:20:47.773 : :Chapter 40
02:25:22.380 : :Chapter 41
02:26:36.454 : :Chapter 42
02:30:35.360 : :Chapter 43
02:34:42.940 : :Chapter 44
02:37:23.100 : :Chapter 45
02:39:42.907 : :Chapter 46
02:41:17.001 : :Chapter 47
02:43:48.152 : :Chapter 48
02:48:12.082 : :Chapter 49
02:54:57.487 : :Chapter 50
02:58:37.040 : :Chapter 51
03:01:54.904 : :Chapter 52
03:05:58.481 : :Chapter 53



Скачать Оно.It.(Томми.Ли.Уоллес).[1990.мистика.триллер.драма.BDRip-HEVC].[1080p].[Dub].torrent без регистрации
Золото ЗОЛОТАЯ РАЗДАЧА! СКАЧАННОЕ НЕ ЗАСЧИТЫВАЕТСЯ! Золото
Дата: Зарегистрирован   [ Тип: внутренний ] Как тут cкачать?
MAGNET ссылка
MAGNET ссылка


Скачать .torrent

23 KB

Статус: проверено DHT
Скачан: торрент - 47 раз, раздача полностью - 37 раз
Размер: 8,62 GB
Оценка:  - (Голосов: 0)
Поблагодарили: 4
Поделиться ссылкой на эту раздачу с друзьями:
В контактеFacebookОдноклассникиTwitterLivejournalМой МирLiveinternet
 

 
Показать сообщения:    


Вы не можете начинать темы
Вы не можете отвечать на сообщения
Вы не можете редактировать свои сообщения
Вы не можете удалять свои сообщения
Вы не можете голосовать в опросах
Вы не можете прикреплять файлы к сообщениям
Вы можете скачивать файлы