Loading...
Error

Скачать Кладбище домашних животных / Pet Sematary (Мэри Ламберт) [1989, ужасы, фэнтези, триллер, драма, детектив, BDRip] [1080p] [MVO]+[AVO (Ю.Сербин)] торрент без регистрации

Статистика раздачи
Размер:  7,76 GB   |    Скачан:  16 раз
Сидов:  1  [  0 KB/s  ]  
 
 
 
Автор Сообщение

Marsianka

[] 


Информация о фильме
Русское название: Кладбище домашних животных
Оригинальное название: Pet Sematary
Год выхода: 1989
Жанр: ужасы, фэнтези, триллер, драма, детектив
Режиссер: Мэри Ламберт
Выпущено: США
Продолжительность: 01:42:46
Перевод: Проф. Многоголосый закадровый (Киномания), Авторский Одноголосый закадровый (Ю.Сербин)
В ролях: Дэйл Мидкифф, Фред Гуинн, Дениз Кросби, Брэд Гринквист, Майкл Ломбард, Мико Хьюз, Блэйз Бердаль, Сьюзан Бломмарт, Мара Кларк, Кави Раз
Сюжет фильма
Доктор Луис Крид переезжает в маленький городок, где его семью ждет большой дом, а самого Луиса - скромная должность лечащего врача местного колледжа. Новая, просторная обитель четы Кридов расположена на краю густого, величественного леса. А в самом лесу - маленькое и мрачное кладбище, где местные жители хоронят своих домашних животных.
Несчастье приходит и в дом Кридов: кот Черч, домашний любимец, по нелепой случайности попадает под колеса грузовика. Гибель Черча повергает семью доктора в шок, и Луис решается на отчаянный шаг. Он хоронит кота на древнем, заброшенном индейском кладбище, обладающем, по легенде, таинственной воскрешающей силой. И однажды ночью погибший кот возвращается к хозяевам...


Файл
Качество: BDRip 1080p (исходник Blu-ray Disc)
Видео: 1920x1080, 9339 Кбит/сек, 23,976 кадр/сек, AVC, x264, [email protected]/* */, 16:9, 0.188 Бит/[Пиксели*Кадры], 2pass
Аудио 1: AC-3, 384 Кбит/сек, 6 канала(ов), 48,0 КГц - Многоголосый закадровый (Киномания) / Русский
Аудио 2: AC-3, 448 Кбит/сек, 6 канала(ов), 48,0 КГц - Одноголосый закадровый (Ю.Сербин) / Русский
Аудио 3: AC-3, 640 Кбит/сек, 6 канала(ов), 48,0 КГц - Оригинал / Английский
Субтитры: Русские | Полные, Английские | Полные
Чаптеры: Есть

Автор Рипа:

Format : Matroska
Format version : Version 2
File size : 7.76 GiB
Duration : 1h 42mn
Overall bit rate : 10.8 Mbps
Movie name : Кладбище домашних животных.(1989).BDRip.1080p.[envy]
Encoded date : UTC 2013-10-02 16:03:33
Writing application : mkvmerge v5.8.0 ('No Sleep / Pillow') built on Sep 2 2012 15:37:04
Writing library : libebml v1.2.3 + libmatroska v1.3.0

Video
ID : 1
Format : AVC
Format/Info : Advanced Video Codec
Format profile : High@L4.1
Format settings, CABAC : Yes
Format settings, ReFrames : 4 frames
Codec ID : V_MPEG4/ISO/AVC
Duration : 1h 42mn
Bit rate : 9 339 Kbps
Width : 1 920 pixels
Height : 1 080 pixels
Display aspect ratio : 16:9
Frame rate mode : Constant
Frame rate : 23.976 fps
Color space : YUV
Chroma subsampling : 4:2:0
Bit depth : 8 bits
Scan type : Progressive
Bits/(Pixel*Frame) : 0.188
Stream size : 6.55 GiB (84%)
Title : Кладбище домашних животных.(1989).BDRip.1080p.[envy]
Writing library : x264 core 138 r2358 9e941d1
Encoding settings : cabac=1 / ref=4 / deblock=1:-3:-3 / analyse=0x3:0x133 / me=umh / subme=11 / psy=1 / psy_rd=1.00:0.00 / mixed_ref=1 / me_range=32 / chroma_me=1 / trellis=2 / 8x8dct=1 / cqm=0 / deadzone=21,11 / fast_pskip=0 / chroma_qp_offset=-2 / threads=12 / lookahead_threads=1 / sliced_threads=0 / nr=0 / decimate=1 / interlaced=0 / bluray_compat=0 / constrained_intra=0 / bframes=6 / b_pyramid=2 / b_adapt=2 / b_bias=0 / direct=3 / weightb=1 / open_gop=0 / weightp=2 / keyint=240 / keyint_min=23 / scenecut=40 / intra_refresh=0 / rc=2pass / mbtree=0 / bitrate=9339 / ratetol=2.0 / qcomp=0.60 / qpmin=0 / qpmax=69 / qpstep=4 / cplxblur=20.0 / qblur=0.5 / ip_ratio=1.40 / pb_ratio=1.30 / aq=1:0.70
Language : English
Default : Yes
Forced : No

Audio #1
ID : 2
Format : AC-3
Format/Info : Audio Coding 3
Mode extension : CM (complete main)
Format settings, Endianness : Big
Codec ID : A_AC3
Duration : 1h 42mn
Bit rate mode : Constant
Bit rate : 384 Kbps
Channel count : 6 channels
Channel positions : Front: L C R, Side: L R, LFE
Sampling rate : 48.0 KHz
Bit depth : 16 bits
Compression mode : Lossy
Stream size : 282 MiB (4%)
Title : Киномания
Language : Russian
Default : Yes
Forced : No

Audio #2
ID : 3
Format : AC-3
Format/Info : Audio Coding 3
Mode extension : CM (complete main)
Format settings, Endianness : Big
Codec ID : A_AC3
Duration : 1h 42mn
Bit rate mode : Constant
Bit rate : 448 Kbps
Channel count : 6 channels
Channel positions : Front: L C R, Side: L R, LFE
Sampling rate : 48.0 KHz
Bit depth : 16 bits
Compression mode : Lossy
Stream size : 329 MiB (4%)
Title : Ю.Сербин
Language : Russian
Default : No
Forced : No

Audio #3
ID : 4
Format : AC-3
Format/Info : Audio Coding 3
Mode extension : CM (complete main)
Format settings, Endianness : Big
Codec ID : A_AC3
Duration : 1h 42mn
Bit rate mode : Constant
Bit rate : 640 Kbps
Channel count : 6 channels
Channel positions : Front: L C R, Side: L R, LFE
Sampling rate : 48.0 KHz
Bit depth : 16 bits
Compression mode : Lossy
Stream size : 470 MiB (6%)
Title : Оригинал
Language : English
Default : No
Forced : No

Text #1
ID : 5
Format : UTF-8
Codec ID : S_TEXT/UTF8
Codec ID/Info : UTF-8 Plain Text
Title : Полные
Language : Russian
Default : No
Forced : No

Text #2
ID : 6
Format : UTF-8
Codec ID : S_TEXT/UTF8
Codec ID/Info : UTF-8 Plain Text
Title : Full
Language : English
Default : No
Forced : No

Menu
00:00:00.000 : :Chapter 01
00:03:04.183 : :Chapter 02
00:09:57.887 : :Chapter 03
00:17:25.127 : :Chapter 04
00:25:07.255 : :Chapter 05
00:33:45.940 : :Chapter 06
00:40:50.531 : :Chapter 07
00:44:18.697 : :Chapter 08
00:47:38.522 : :Chapter 09
00:53:32.542 : :Chapter 10
01:00:08.938 : :Chapter 11
01:09:11.939 : :Chapter 12
01:16:45.100 : :Chapter 13
01:21:37.975 : :Chapter 14
01:26:33.062 : :Chapter 15
01:28:28.469 : :Chapter 16
01:30:20.247 : :Chapter 17
01:35:37.898 : :Chapter 18
01:39:35.594 : :Chapter 19




Скачать Кладбище.домашних.животных.Pet.Sematary.(Мэри.Ламберт).[1989.ужасы.фэнтези.триллер.драма.детектив.BDRip].[1080p].[MVO]+[AVO.(Ю.Сербин)].torrent без регистрации
Золото ЗОЛОТАЯ РАЗДАЧА! СКАЧАННОЕ НЕ ЗАСЧИТЫВАЕТСЯ! Золото
Дата: Зарегистрирован   [ Тип: внутренний ] Как тут cкачать?
MAGNET ссылка
MAGNET ссылка


Скачать .torrent

40 KB

Статус: проверено DHT
Скачан: торрент - 16 раз, раздача полностью - 39 раз
Размер: 7,76 GB
Оценка:  5 (Голосов: 1)
Поблагодарили: 1
Поделиться ссылкой на эту раздачу с друзьями:
В контактеFacebookОдноклассникиTwitterLivejournalМой МирLiveinternet
 

 
Показать сообщения:    


Вы не можете начинать темы
Вы не можете отвечать на сообщения
Вы не можете редактировать свои сообщения
Вы не можете удалять свои сообщения
Вы не можете голосовать в опросах
Вы не можете прикреплять файлы к сообщениям
Вы можете скачивать файлы