Loading...
Error

Скачать Американские боги / American Gods (Сезон 01) (Дэвид Слэйд, Адам Кэйн, Винченцо Натали) [2017, Фэнтези, детектив, HDTVRip] [DVO] (HamsterStudio) торрент без регистрации

Статистика раздачи
Размер:  4,48 GB   |    Скачан:  108 раз
Сидов:  1  [  0 KB/s  ]  
 
 
 
Автор Сообщение

leon030982

[] 

Американские боги
American Gods

Год выпуска: 2017
Страна: США
Жанр: Фэнтези, детектив
Продолжительность: ~01:02:00
Перевод: Любительский (двухголосый) HamsterStudio

Режиссёр: Дэвид Слэйд, Адам Кэйн, Винченцо Натали

В ролях: Рики Уиттл, Иэн МакШейн, Эмили Браунинг, Пабло Шрайбер, Брюс Лэнгли, Джонатан Такер, Джиллиан Андерсон, Клорис Личмен

Описание: Тень — человек с прошлым. Но теперь единственное, чего он хочет — это жить тихой и спокойной жизнью со своей женой в стороне от проблем. Пока он не узнает о ее гибели в результате несчастного случая. По пути на похороны домой, когда сильнейший шторм сотрясает самолет, ему представляется странный человек с соседнего кресла. Он называет себя мистер Среда. И он знает о Тени больше, чем кажется возможным. Он предупреждает Тень, что грядет ещё больший шторм. И ничто с этого момента, включая его самого, не будет таким, как прежде.



Качество: HDTVRip
Формат: AVI
Видео: XviD, ~ 1300 Кбит/с, 720x400, 23.976 fps
Аудио: MP3, 48 kHz, 2 ch, 128 kbps
Субтитры: отсутствуют
Добавлена 8-я серия!
General
Complete name : E:\Американские Боги (Season 01)\American.Gods.S01E01.HDTVRip.HamsterStudio.org.avi
Format : AVI
Format/Info : Audio Video Interleave
File size : 602 MiB
Duration : 1h 3mn
Overall bit rate : 1 332 Kbps
Writing application : VirtualDubModRus 1.5.10.2 (build 2540/release)
Writing library : VirtualDubMod build 2540/release

Video
ID : 0
Format : MPEG-4 Visual
Format profile : Advanced Simple@L5
Format settings, BVOP : 1
Format settings, QPel : No
Format settings, GMC : No warppoints
Format settings, Matrix : Default (H.263)
Codec ID : XVID
Codec ID/Hint : XviD
Duration : 1h 3mn
Bit rate : 1 142 Kbps
Width : 720 pixels
Height : 400 pixels
Display aspect ratio : 16:9
Frame rate : 23.976 fps
Color space : YUV
Chroma subsampling : 4:2:0
Bit depth : 8 bits
Scan type : Progressive
Compression mode : Lossy
Bits/(Pixel*Frame) : 0.165
Stream size : 516 MiB (86%)
Writing library : XviD 1.2.1 (UTC 2008-12-04)

Audio
ID : 1
Format : MPEG Audio
Format version : Version 1
Format profile : Layer 3
Mode : Joint stereo
Mode extension : MS Stereo
Codec ID : 55
Codec ID/Hint : MP3
Duration : 1h 3mn
Bit rate mode : Constant
Bit rate : 128 Kbps
Channel(s) : 2 channels
Sampling rate : 48.0 KHz
Compression mode : Lossy
Stream size : 57.8 MiB (10%)
Alignment : Aligned on interleaves
Внимание! Раздача ведётся путём добавления новых серий; при каждом добавлении создаётся новый торрент. Чтобы начать докачку новой серии, пользователям необходимо сделать следующее:
(1) остановить скачивание,
(2) удалить старый торрент у себя из клиента (старые серии удалять не надо),
(3) скачать новый торрент и запустить его у себя в клиенте вместо старого, при этом указать клиенту путь в старую папку куда и должно происходить скачивание новых серий.
Ваш клиент при этом должен произвести хеширование (проверку) старой папки (если не производит сам - помогите ему сделать это), и будет докачивать только те серии которых у вас ещё нет. Старые серии при этом не удаляются, а продолжают раздаваться!
Eсли вы уже удалили старые серии, то предотвратить повторную закачку старых серий можно, отжав галочку в соответствующих местах при запуске нового торрента. По возможности, желательно не удалять старые серии как можно дольше чтобы релизёр не столько продолжал раздавать старые серии, а смог сконцентрироваться на новых.




Скачать Американские.боги.American.Gods.(Сезон.01).(Дэвид.Слэйд.Адам.Кэйн.Винченцо.Натали).[2017.Фэнтези.детектив.HDTVRip].[DVO].(HamsterStudio).torrent без регистрации
Золото ЗОЛОТАЯ РАЗДАЧА! СКАЧАННОЕ НЕ ЗАСЧИТЫВАЕТСЯ! Золото
Дата: Зарегистрирован   [ Тип: внутренний ] Как тут cкачать?
MAGNET ссылка
MAGNET ссылка


Скачать .torrent

24 KB

Статус: проверено DHT
Скачан: торрент - 108 раз, раздача полностью - 16 раз
Размер: 4,48 GB
Оценка:  - (Голосов: 0)
Поблагодарили: 1
Поделиться ссылкой на эту раздачу с друзьями:
В контактеFacebookОдноклассникиTwitterLivejournalМой МирLiveinternet
 

 
Показать сообщения:    


Вы не можете начинать темы
Вы не можете отвечать на сообщения
Вы не можете редактировать свои сообщения
Вы не можете удалять свои сообщения
Вы не можете голосовать в опросах
Вы не можете прикреплять файлы к сообщениям
Вы можете скачивать файлы