Loading...
Error

Скачать Космический охотник: Приключения в Запретной зоне / Spacehunter: Adventures in the Forbidden Zone (Ламонт Джонсон) [1983, фантастика, боевик, приключения, BD-Remux] [1080p] [MVO]x2+AVO]+[Eng]+[Sub]x2 торрент без регистрации

Статистика раздачи
Размер:  19,27 GB   |    Скачан:  7 раз
Сидов:  1  [  0 KB/s  ]  
 
 
 
Автор Сообщение

Marsianka

[] 

Информация о фильме
Название: Космический охотник: Приключения в Запретной зоне
Оригинальное название: Spacehunter: Adventures in the Forbidden Zone
Год выхода: 1983
Жанр: фантастика, боевик, приключения
Режиссер: Ламонт Джонсон
В ролях: Питер Штраусс, Молли Рингуолд, Эрни Хадсон, Андреа Марковиччи, Майкл Айронсайд, Бисон Кэрролл, Хрант Альянак, Дебора Прэтт, Алейса Ширли, Кали Тимминс

О фильме:
Отдаленное будущее. Пассажирский космолайнер терпит крушение. Погибают все, кроме трех девушек, которые за минуту до взрыва успевают покинуть обреченный корабль на спасательном челноке. Следуя заложенной в него программе, челнок самостоятельно подыскивает планету для высадки. Этой планетой становится Терра-11, атмосфера которой схожа с земной. Из сводки новостей космический охотник Вулф узнает о крушении корабля и о высадке выживших пассажирок. В результате анализа запрошенной информации оказывается, что в течение долгих лет её население было охвачено чумой. Медицинская экспедиция, отправленная на планету, не смогла справиться с разбушевавшейся болезнью и Терре-11 был присвоен статус запретной зоны. Вулф сомневается, стоит ли рисковать головой и лететь на зачумленную планету, но за спасение девушек назначено огромное вознаграждение…


Страна: США, Канада
Студия: Columbia Pictures, Delphi I Productions, Zone Productions
Продолжительность: 01:29:52
Перевод: Профессиональный многоголосый, авторский

Файл
Качество: BD-Remux 1080p
Видео: MPEG-2, 29.6 Mбит/с, 1920x1080, 23.976 кадр/с
Аудио #1: AC3, 2 ch, 192 Кбит/с | Профессиональный многоголосый (ТВ3)
Аудио #2: AC3, 2 ch, 192 Кбит/с | Профессиональный многоголосый
Аудио #3: AC3, 2 ch, 192 Кбит/с | Авторский (Ю. Живов)
Аудио #4: FLAC, 2 ch, 529 Кбит/с | Английский
Субтитры: Русские (SRT, Eazin), английские (PGS)
Общее
Уникальный идентификатор : 221999925531849224200900065973934481700 (0xA703A1636CC191C48226516105E7E124)
Полное имя : Spacehunter.Adventures.in.the.Forbidden.Zone.1983.1080p.BluRay.REMUX.mkv
Формат : Matroska
Версия формата : Version 4 / Version 2
Размер файла : 19,3 Гбайт
Продолжительность : 1 ч. 29 м.
Режим общего битрейта : Переменный
Общий поток : 30,7 Мбит/сек
Название фильма : Spacehunter.Adventures.in.the.Forbidden.Zone.1983
Дата кодирования : UTC 2017-05-14 07:51:13
Программа кодирования : mkvmerge v9.2.0 ('Photograph') 32bit
Библиотека кодирования : libebml v1.3.3 + libmatroska v1.4.4
Обложка : Yes
Attachments : cover.jpg

Видео
Идентификатор : 1
Формат : MPEG Video
Версия формата : Version 2
Профиль формата : Main@High
Параметр BVOP формата : Да
Параметр матрицы формата : По умолчанию
Параметр GOP формата : M=3, N=12
Идентификатор кодека : V_MPEG2
Идентификатор кодека/Информация : MPEG 1 or 2 Video
Продолжительность : 1 ч. 29 м.
Вид битрейта : Постоянный
Битрейт : 29,6 Мбит/сек
Максимальный битрейт : 30,0 Мбит/сек
Ширина : 1920 пикселей
Высота : 1080 пикселей
Соотношение сторон : 16:9
Режим частоты кадров : Постоянный
Частота кадров : 23,976 (24000/1001) кадра/сек
Цветовое пространство : YUV
Субдискретизация насыщенности : 4:2:0
Битовая глубина : 8 бит
Тип развёртки : Прогрессивная
Метод сжатия : С потерями
Бит/(Пиксели*Кадры) : 0.595
Временной код первого кадра : 00:00:00:00
Оригинал временного кода : Group of pictures header
GOP, открыто/закрыто : Закрыто
Размер потока : 18,6 Гбайт (96%)
Заголовок : Spacehunter.Adventures.in.the.Forbidden.Zone.1983.1080p.BluRay.REMUX-SpookE
Язык : English
Default : Да
Forced : Нет

Аудио #1
Идентификатор : 2
Формат : AC-3
Формат/Информация : Audio Coding 3
Расширение режима : CM (complete main)
Параметр Endianness формата : Big
Идентификатор кодека : A_AC3
Продолжительность : 1 ч. 29 м.
Вид битрейта : Постоянный
Битрейт : 192 Кбит/сек
Каналы : 2 канала
Расположение каналов : Front: L R
Частота : 48,0 КГц
Частота кадров : 31,250 кадров/сек (1536 spf)
Битовая глубина : 16 бит
Метод сжатия : С потерями
Размер потока : 123 Мбайт (1%)
Заголовок : MVO - ТВ-3
Язык : Russian
Default : Да
Forced : Нет

Аудио #2
Идентификатор : 3
Формат : AC-3
Формат/Информация : Audio Coding 3
Расширение режима : CM (complete main)
Параметр Endianness формата : Big
Идентификатор кодека : A_AC3
Продолжительность : 1 ч. 29 м.
Вид битрейта : Постоянный
Битрейт : 192 Кбит/сек
Каналы : 2 канала
Расположение каналов : Front: L R
Частота : 48,0 КГц
Частота кадров : 31,250 кадров/сек (1536 spf)
Битовая глубина : 16 бит
Метод сжатия : С потерями
Размер потока : 123 Мбайт (1%)
Заголовок : MVO
Язык : Russian
Default : Нет
Forced : Нет

Аудио #3
Идентификатор : 4
Формат : AC-3
Формат/Информация : Audio Coding 3
Расширение режима : CM (complete main)
Параметр Endianness формата : Big
Идентификатор кодека : A_AC3
Продолжительность : 1 ч. 29 м.
Вид битрейта : Постоянный
Битрейт : 192 Кбит/сек
Каналы : 2 канала
Расположение каналов : Front: L R
Частота : 48,0 КГц
Частота кадров : 31,250 кадров/сек (1536 spf)
Битовая глубина : 16 бит
Метод сжатия : С потерями
Размер потока : 123 Мбайт (1%)
Заголовок : AVO - Живов
Язык : Russian
Default : Нет
Forced : Нет

Аудио #4
Идентификатор : 5
Формат : FLAC
Формат/Информация : Free Lossless Audio Codec
Идентификатор кодека : A_FLAC
Продолжительность : 1 ч. 29 м.
Вид битрейта : Переменный
Битрейт : 529 Кбит/сек
Каналы : 2 канала
Расположение каналов : Front: L R
Частота : 48,0 КГц
Частота кадров : 11,719 кадров/сек (4096 spf)
Битовая глубина : 16 бит
Размер потока : 340 Мбайт (2%)
Заголовок : Original
Библиотека кодирования : libFLAC 1.2.1 (UTC 2007-09-17)
Язык : English
Default : Нет
Forced : Нет

Текст #1
Идентификатор : 6
Формат : UTF-8
Идентификатор кодека : S_TEXT/UTF8
Идентификатор кодека/Информация : UTF-8 Plain Text
Продолжительность : 1 ч. 24 м.
Битрейт : 69 бит/сек
Count of elements : 691
Размер потока : 43,2 Кбайт (0%)
Заголовок : Eazin
Язык : Russian
Default : Да
Forced : Нет

Текст #2
Идентификатор : 7
Формат : PGS
Режим смешивания : zlib
Идентификатор кодека : S_HDMV/PGS
Идентификатор кодека/Информация : Picture based subtitle format used on BDs/HD-DVDs
Продолжительность : 1 ч. 26 м.
Битрейт : 4470 бит/сек
Count of elements : 2045
Размер потока : 2,75 Мбайт (0%)
Заголовок : SDH
Язык : English
Default : Нет
Forced : Нет

Меню
00:00:00.000 : en:Start
00:04:15.100 : en:Natives Are Restless
00:06:01.267 : en:Wolff & Chalmers
00:10:04.801 : en:Terra 11 Rescue Mission
00:12:50.335 : en:Visitors
00:18:38.702 : en:Grandman Patterson
00:20:20.603 : en:Best Model Ever
00:21:32.903 : en:Serum Depot
00:23:55.170 : en:Niki the Twister
00:27:14.570 : en:The Chemist
00:28:12.004 : en:"I Don't Eat No Dogs!"
00:30:32.838 : en:New Friends
00:31:48.405 : en:Niki Comes Clean
00:34:32.039 : en:Sector Chief Washington
00:43:59.740 : en:Mutants!
00:46:58.207 : en:Overdog
00:48:38.741 : en:Wet & Wild
00:55:33.275 : en:The Deal
01:01:17.842 : en:"Children... Aren't They?"
01:04:03.842 : en:The Graveyard
01:06:06.443 : en:"Let the Games Begin!"
01:10:30.277 : en:Hitting the Slave Pens
01:11:49.511 : en:Consolation Prize
01:14:11.045 : en:The Maze
01:17:50.612 : en:The Fusion Tube
01:19:32.612 : en:Wolff vs. Overdog
01:22:40.112 : en:Graveyard Destroyed
01:23:27.412 : en:Trust Words



Скачать Космический.охотник.Приключения.в.Запретной.зоне.Spacehunter.Adventures.in.the.Forbidden.Zone.(Ламонт.Джонсон).[1983.фантастика.боевик.приключения.BD-Remux].[1080p].[MVO]x2+AVO]+[Eng]+[Sub]x2.torrent без регистрации
Золото ЗОЛОТАЯ РАЗДАЧА! СКАЧАННОЕ НЕ ЗАСЧИТЫВАЕТСЯ! Золото
Дата: Зарегистрирован   [ Тип: внутренний ] Как тут cкачать?
MAGNET ссылка
MAGNET ссылка


Скачать .torrent

97 KB

Статус: проверено DHT
Скачан: торрент - 7 раз, раздача полностью - 1 раз
Размер: 19,27 GB
Оценка:  - (Голосов: 0)
Поблагодарили: 0
Поделиться ссылкой на эту раздачу с друзьями:
В контактеFacebookОдноклассникиTwitterLivejournalМой МирLiveinternet
 

 
Показать сообщения:    


Вы не можете начинать темы
Вы не можете отвечать на сообщения
Вы не можете редактировать свои сообщения
Вы не можете удалять свои сообщения
Вы не можете голосовать в опросах
Вы не можете прикреплять файлы к сообщениям
Вы можете скачивать файлы