Loading...
Error

Скачать Автобан / Collide (Эрен Криви) [2016, боевик, триллер, BDRip] [1080p] [60fps] [DUB] [Лицензия / iTunes] торрент без регистрации

Статистика раздачи
Размер:  11,62 GB   |    Скачан:  48 раз
Сидов:  3  [  0 KB/s  ]  
 
 
 
Автор Сообщение

leon030982

[] 

Автобан / Collide



Год выпуска: 2016
Страна: Великобритания Германия
Производство: Automatik Entertainment, DMG Entertainment, IM Global Film Fund, Silver Pictures
Жанр: боевик, триллер
Продолжительность: 01:38:51
Перевод: Дублированный [Лицензия / iTunes]
Субтитры: английские

Режиссер: Эрен Криви
Авторы сценария: Ф. Скотт Фрэйзер, Эрен Криви

В ролях: Николас Холт, Фелисити Джонс, Энтони Хопкинс, Бен Кингсли, Марван Кензари, Александр Йованович, Кристиан Перерсен, Эрдал Йильдиз

Описание: Американский турист Кейси Штайн, путешествуя с подругой по Европе, оказывается втянутым в разборки между двумя враждующими мафиозными группировками. Одну из них возглавляет Хаген, другую — Геран. И с этого момента начинается смертельно опасная гонка на запредельной скорости по автобанам Германии...


Релиз группа:

Качество: BDRip [1080p] [60fps]
Формат: MKV
Видео кодек: AVC
Аудио кодек: DTS, АС3
Видео: 1920х800, 14.0 Mb/s , 59.940 FPS
Аудио: Audio Coding 3 48 kHz, AC3, 5.1, 384 Kbps | Дублированный | iTunes | RUS |
Аудио: Digital Theater Systems 48 kHz, DTS-HD MA, 5.1, 2454 Kbps | Оригинал | ENG
Unique ID : 182968080954925022015537194328980166261 (0x89A65EDF7F9AD625979A28E89FD39675)
Complete name : F:\Торент\60fps\Collide.2016.BDRip.1080p.60fps.GTP.mkv
Format : Matroska
Format version : Version 4 / Version 2
File size : 11.6 GiB
Duration : 1 h 38 min
Overall bit rate : 16.8 Mb/s
Movie name : GTP Collide.2016.BDRip.1080p.60fps.GTP
Encoded date : UTC 2017-05-18 11:44:48
Writing application : mkvmerge v9.4.0 ('Knurl') 64bit
Writing library : libebml v1.3.4 + libmatroska v1.4.5
Cover : Yes
Attachments : cover.png

Video
ID : 1
Format : AVC
Format/Info : Advanced Video Codec
Format profile : High@L4.2
Format settings, CABAC : Yes
Format settings, ReFrames : 4 frames
Codec ID : V_MPEG4/ISO/AVC
Duration : 1 h 38 min
Bit rate : 14.0 Mb/s
Width : 1 920 pixels
Height : 800 pixels
Display aspect ratio : 2.40:1
Frame rate mode : Constant
Frame rate : 59.940 (59940/1000) FPS
Color space : YUV
Chroma subsampling : 4:2:0
Bit depth : 8 bits
Scan type : Progressive
Bits/(Pixel*Frame) : 0.152
Stream size : 9.65 GiB (83%)
Title : GTP Collide.2016.BDRip.1080p.60fps.GTP
Writing library : x264 core 146 r2538 121396c
Encoding settings : cabac=1 / ref=4 / deblock=1:-1:-1 / analyse=0x3:0x113 / me=umh / subme=10 / psy=1 / psy_rd=1.00:0.10 / mixed_ref=1 / me_range=32 / chroma_me=1 / trellis=2 / 8x8dct=1 / cqm=0 / deadzone=21,11 / fast_pskip=0 / chroma_qp_offset=-3 / threads=12 / lookahead_threads=1 / sliced_threads=0 / nr=0 / decimate=1 / interlaced=0 / bluray_compat=0 / constrained_intra=0 / bframes=3 / b_pyramid=2 / b_adapt=2 / b_bias=0 / direct=3 / weightb=1 / open_gop=0 / weightp=2 / keyint=600 / keyint_min=59 / scenecut=40 / intra_refresh=0 / rc_lookahead=40 / rc=2pass / mbtree=0 / bitrate=14000 / ratetol=1.0 / qcomp=0.60 / qpmin=0 / qpmax=69 / qpstep=4 / cplxblur=20.0 / qblur=0.5 / vbv_maxrate=17000 / vbv_bufsize=17000 / nal_hrd=none / filler=0 / ip_ratio=1.40 / pb_ratio=1.30 / aq=1:1.00
Language : English
Default : Yes
Forced : No

Audio #1
ID : 2
Format : AC-3
Format/Info : Audio Coding 3
Format settings, Endianness : Big
Codec ID : A_AC3
Duration : 1 h 38 min
Bit rate mode : Constant
Bit rate : 384 kb/s
Channel(s) : 6 channels
Channel positions : Front: L C R, Side: L R, LFE
Sampling rate : 48.0 kHz
Frame rate : 31.250 FPS (1536 spf)
Bit depth : 16 bits
Compression mode : Lossy
Delay relative to video : 8 s 634 ms
Stream size : 271 MiB (2%)
Title : iTunes
Language : Russian
Service kind : Complete Main
Default : Yes
Forced : No

Audio #2
ID : 3
Format : DTS
Format/Info : Digital Theater Systems
Format profile : MA / Core
Mode : 16
Format settings, Endianness : Big
Codec ID : A_DTS
Duration : 1 h 38 min
Bit rate mode : Variable / Constant
Bit rate : 2 454 kb/s / 1 509 kb/s
Channel(s) : 6 channels
Channel positions : Front: L C R, Side: L R, LFE
Sampling rate : 48.0 kHz
Frame rate : 93.750 FPS (512 spf)
Bit depth : 16 bits
Compression mode : Lossless / Lossy
Delay relative to video : 8 s 634 ms
Stream size : 1.69 GiB (15%)
Title : Original
Language : English
Default : No
Forced : No

Text
ID : 4
Format : UTF-8
Codec ID : S_TEXT/UTF8
Codec ID/Info : UTF-8 Plain Text
Duration : 1 h 29 min
Bit rate : 39 b/s
Count of elements : 766
Stream size : 25.5 KiB (0%)
Title : Original
Language : English
Default : No
Forced : No

Menu
00:00:00.000 : en:00:00:00.000
00:10:29.712 : en:00:10:29.712
00:19:13.944 : en:00:19:13.944
00:26:06.565 : en:00:26:06.565
00:35:39.054 : en:00:35:39.054
00:46:35.710 : en:00:46:35.710
00:58:15.200 : en:00:58:15.200
01:10:06.577 : en:01:10:06.577
01:18:05.848 : en:01:18:05.848
01:28:32.766 : en:01:28:32.766



Скачать Автобан.Collide.(Эрен.Криви).[2016.боевик.триллер.BDRip].[1080p].[60fps].[DUB].[Лицензия.iTunes].torrent без регистрации
Золото ЗОЛОТАЯ РАЗДАЧА! СКАЧАННОЕ НЕ ЗАСЧИТЫВАЕТСЯ! Золото
Дата: Зарегистрирован   [ Тип: внешний ] Как тут cкачать?
MAGNET ссылка
MAGNET ссылка


Скачать .torrent

30 KB

Статус: проверено DHT
Скачан: торрент - 48 раз, раздача полностью - 27 раз
Размер: 11,62 GB
Оценка:  5 (Голосов: 1)
Поблагодарили: 4
Поделиться ссылкой на эту раздачу с друзьями:
В контактеFacebookОдноклассникиTwitterLivejournalМой МирLiveinternet
 

 
Показать сообщения:    


Вы не можете начинать темы
Вы не можете отвечать на сообщения
Вы не можете редактировать свои сообщения
Вы не можете удалять свои сообщения
Вы не можете голосовать в опросах
Вы не можете прикреплять файлы к сообщениям
Вы можете скачивать файлы