Loading...
Error

Скачать Звёздный мальчик (Анатолий Дудоров, Евгений Зильберштейн) [1957, детский фильм, сказка, SATRip] торрент без регистрации

Статистика раздачи
Размер:  744 MB   |    Скачан:  14 раз
Сидов:  2  [  0 KB/s  ]  

 
 
 
Автор Сообщение

Marsianka

[] 

Страна: СССР
Производство: Мосфильм по заказу Центральной студии Телевидения

Жанр: детский фильм, сказка
Год выпуска: 1957
Продолжительность: 01:11:54

Перевод: Не требуется
Cубтитры: нет
Оригинальная аудиодорожка: русский

Режиссер: Анатолий Дудоров, Евгений Зильберштейн

В ролях:
Мария Виноградова, Сергей Голованов, Елизавета Кузюрина, Нина Гребешкова, Елена Королёва, Владимир Гуськов, Михаил Трояновский, Афанасий Кочетков, Мария Кремнёва, Б. Виноградов, Надежда Румянцева, Нина Крачковская, Татьяна Гурецкая, Алексей Добронравов, Николай Скоробогатов, Эммануил Геллер...
Об актёрах подробней

Описание:
Телефильм по рассказу Оскара Уайльда. На Землю упала звезда. Так появился на нашей планете звездный мальчик. С каждым годом он становился все красивее и красивее.Его золотые волосы колечками спадали вниз, а губы были похожи на лепестки алой розы. Глаза его напоминали фиалки на берегу чистого ручья,а нежные руки точно нарциссы на нетронутой опушке леса. Но красота не сделала его добрым. Совсем наоборот, мальчик рос гордым и жестоким. Даже свою мать, которая долгие годы искала его и поэтому явилась в отрепьях нищенки, он оттолкнул и обидел. Но судьба дала ему шанс исправить ошибки...

Источник: DVB
Качество видео: SATRip
Формат видео: AVI

Видео: 688x512 (4:3), 25 fps, XviD ~ 1309 kbps avg, 0.149 bit/pixel
Аудио: 48 kHz, MP3 2.0, 128 kbps

Раздача от:

Общее
Полное имя : Zvyozdnyy.malchik.1957.SATRip_[New-team]_by_AVP_Studio.avi
Формат : AVI
Формат/Информация : Audio Video Interleave
Размер файла : 744 Мбайт
Продолжительность : 1 ч. 11 м.
Общий поток : 1447 Кбит/сек
Программа кодирования : VirtualDubMod 1.5.10.3 | www.virtualdub-fr.org || (build 2550/release)
Библиотека кодирования : VirtualDubMod build 2550/release

Видео
Идентификатор : 0
Формат : MPEG-4 Visual
Профиль формата : Advanced Simple@L5
Параметр BVOP формата : 1
Параметр QPel формата : Нет
Параметр GMC формата : Без точки перехода
Параметр матрицы формата : Выборочная
Идентификатор кодека : XVID
Идентификатор кодека/Подсказка : XviD
Продолжительность : 1 ч. 11 м.
Битрейт : 1309 Кбит/сек
Ширина : 688 пикселей
Высота : 512 пикселей
Соотношение сторон : 4:3
Частота кадров : 25,000 кадров/сек
Цветовое пространство : YUV
Субдискретизация насыщенности : 4:2:0
Битовая глубина : 8 бит
Тип развёртки : Прогрессивная
Метод сжатия : С потерями
Бит/(Пиксели*Кадры) : 0.149
Размер потока : 673 Мбайт (90%)
Библиотека кодирования : XviD 73

Аудио
Идентификатор : 1
Формат : MPEG Audio
Версия формата : Version 1
Профиль формата : Layer 3
Идентификатор кодека : 55
Идентификатор кодека/Подсказка : MP3
Продолжительность : 1 ч. 11 м.
Вид битрейта : Постоянный
Битрейт : 128 Кбит/сек
Каналы : 2 канала
Частота : 48,0 КГц
Метод сжатия : С потерями
Размер потока : 65,8 Мбайт (9%)
Выравнивание : Соединение по промежуткам
Продолжительность промежутка : 40 мс. (1,00 видеокадр)
Время предзагрузки промежутка : 504 мс.
Библиотека кодирования : LAME3.99r
Настройки программы : -m s -V 4 -q 2 -lowpass 17 -b 128




Скачать Звёздный.мальчик.(Анатолий.Дудоров.Евгений.Зильберштейн).[1957.детский.фильм.сказка.SATRip].torrent без регистрации
Золото ЗОЛОТАЯ РАЗДАЧА! СКАЧАННОЕ НЕ ЗАСЧИТЫВАЕТСЯ! Золото
Дата: Зарегистрирован   [ Тип: внешний ] Как тут cкачать?
MAGNET ссылка
MAGNET ссылка


Скачать .torrent

16 KB

Статус: проверено DHT
Скачан: торрент - 14 раз, раздача полностью - 2 раз
Размер: 744 MB
Оценка:  - (Голосов: 0)
Поблагодарили: 0
Поделиться ссылкой на эту раздачу с друзьями:
В контактеFacebookОдноклассникиTwitterLivejournalМой МирLiveinternet
 

 
Показать сообщения:    


Вы не можете начинать темы
Вы не можете отвечать на сообщения
Вы не можете редактировать свои сообщения
Вы не можете удалять свои сообщения
Вы не можете голосовать в опросах
Вы не можете прикреплять файлы к сообщениям
Вы можете скачивать файлы