Loading...
Error

Скачать Избранный / El elegido / The Chosen (Антонио Чаварриас) [2016, триллер, драма, история, BDRemux] [1080p] [MVO (BadBajo)]+[Eng] торрент без регистрации

Статистика раздачи
Размер:  19,51 GB   |    Скачан:  18 раз

Полного источника не было: 30 минут


 
 
 
Автор Сообщение

МихаНЕзатор

[] 

Информация о фильме
Название: Избранный
Оригинальное название: El elegido / The Chosen
Год выхода: 2016
Жанр: триллер, драма, история
Режиссер: Антонио Чаварриас

В ролях: Альфонсо Эррера, Ханна Мюррэй, Генри Гудман, Джулиан Сэндс, Эльвира Мингес, Эмилио Эчеваррия, Фрэнсис Барбер, Алехандро Кальва, Рохер Касамахор, Хавьер Годино

О фильме: Фильм рассказывает о человеке по имени Рамон Меркадер, который был завербован сталинской секретной полицией ГПУ и направлен в Париж под именем Жак Монрар чтобы там познакомиться с девушкой по имени Сильвия Агелофф. Сильвия работает вместе со Львом Троцким. Позже Сильвия перебирается в Мексику. В Мексику отправляется и Рамон, но уже под именем Фрэнк Джексон, чтобы при помощи возлюбленной собирать информацию о враге народа Льве Троцком. Позже Рамон становится единственной надеждой ГПУ на уничтожение "старика".



Страна: Испания, Мексика
Студия: Oberón Cinematográfica, Alebrije Cine y Video, Ibermedia
Продолжительность: 02:04:58
Перевод: Любительский одноголосый | BadBajo |

Файл
Качество: BDRemux 1080p
Видео: MPEG-4 AVC, 1920x1080, 18.2 Mbit/s, 24.000 fps
Звук:
Аудио #01: 48 kHz, DTS-HD MA, 5.1, 2048 Kbps | BadBajo | RUS |
Аудио #02: 48 kHz, AC3, 5.1, 640 Kbps | BadBajo | RUS |
Аудио #03: 48 kHz, DTS-HD MA, 5.1, 1536 Kbps | Оригинал | ENG |

АНОНСЫ ПОПУЛЯРНЫХ РАЗДАЧ
General
Unique ID : 204117937189493422364205345420160365309 (0x998FAF4B401998E7A59D417DEBD972FD)
Complete name : F:VideoThe.Chosen.2016.BDREMUX.1080p.ExKinoRay.mkv
Format : Matroska
Format version : Version 4 / Version 2
File size : 19.5 GiB
Duration : 2 h 4 min
Overall bit rate mode : Variable
Overall bit rate : 22.3 Mb/s
Encoded date : UTC 2017-05-19 11:01:01
Writing application : mkvmerge v11.0.0 ('Alive') 64bit
Writing library : libebml v1.3.4 + libmatroska v1.4.5

Video
ID : 1
Format : AVC
Format/Info : Advanced Video Codec
Format profile : High@L4.1
Format settings, CABAC : Yes
Format settings, ReFrames : 4 frames
Codec ID : V_MPEG4/ISO/AVC
Duration : 2 h 4 min
Bit rate mode : Variable
Bit rate : 18.2 Mb/s
Maximum bit rate : 25.0 Mb/s
Width : 1 920 pixels
Height : 1 080 pixels
Display aspect ratio : 16:9
Frame rate mode : Constant
Frame rate : 24.000 FPS
Standard : NTSC
Color space : YUV
Chroma subsampling : 4:2:0
Bit depth : 8 bits
Scan type : Progressive
Bits/(Pixel*Frame) : 0.365
Stream size : 15.9 GiB (81%)
Language : Spanish
Default : Yes
Forced : No
Color range : Limited
Color primaries : BT.709
Transfer characteristics : BT.709
Matrix coefficients : BT.709

Audio #1
ID : 2
Format : DTS
Format/Info : Digital Theater Systems
Format profile : MA / Core
Mode : 16
Format settings, Endianness : Big
Codec ID : A_DTS
Duration : 2 h 4 min
Bit rate mode : Variable / Constant
Bit rate : 2 048 kb/s / 1 509 kb/s
Channel(s) : 6 channels
Channel positions : Front: L C R, Side: L R, LFE
Sampling rate : 48.0 kHz
Frame rate : 93.750 FPS (512 spf)
Bit depth : 16 bits
Compression mode : Lossless / Lossy
Stream size : 1.76 GiB (9%)
Title : AVO [BadBajo]
Language : Russian
Default : Yes
Forced : No

Audio #2
ID : 3
Format : AC-3
Format/Info : Audio Coding 3
Format settings, Endianness : Big
Codec ID : A_AC3
Duration : 2 h 4 min
Bit rate mode : Constant
Bit rate : 640 kb/s
Channel(s) : 6 channels
Channel positions : Front: L C R, Side: L R, LFE
Sampling rate : 48.0 kHz
Frame rate : 31.250 FPS (1536 spf)
Bit depth : 16 bits
Compression mode : Lossy
Stream size : 572 MiB (3%)
Title : AVO [BadBajo]
Language : Russian
Service kind : Complete Main
Default : No
Forced : No

Audio #3
ID : 4
Format : DTS
Format/Info : Digital Theater Systems
Format profile : MA / Core
Mode : 16
Format settings, Endianness : Big
Codec ID : A_DTS
Duration : 2 h 4 min
Bit rate mode : Variable / Constant
Bit rate : 1 536 kb/s / 768 kb/s
Channel(s) : 6 channels
Channel positions : Front: L C R, Side: L R, LFE
Sampling rate : 48.0 kHz
Frame rate : 93.750 FPS (512 spf)
Bit depth : 16 bits
Compression mode : Lossless / Lossy
Stream size : 1.32 GiB (7%)
Title : Original
Language : English
Default : No
Forced : No

Menu
00:00:00.000 : en:Chapter 1
00:16:45.250 : en:Chapter 2
00:29:48.500 : en:Chapter 3
00:45:27.666 : en:Chapter 4
01:00:20.583 : en:Chapter 5
01:15:23.458 : en:Chapter 6
01:31:34.041 : en:Chapter 7
01:45:58.416 : en:Chapter 8




Скачать Избранный.El.elegido.The.Chosen.(Антонио.Чаварриас).[2016.триллер.драма.история.BDRemux].[1080p].[MVO.(BadBajo)]+[Eng].torrent без регистрации
Золото ЗОЛОТАЯ РАЗДАЧА! СКАЧАННОЕ НЕ ЗАСЧИТЫВАЕТСЯ! Золото
Дата: Зарегистрирован   [ Тип: внутренний ] Как тут cкачать?
MAGNET ссылка
MAGNET ссылка


Скачать .torrent

99 KB

Статус: проверено DHT
Скачан: торрент - 18 раз, раздача полностью - 23 раз
Размер: 19,51 GB
Оценка:  - (Голосов: 0)
Поблагодарили: 3
Поделиться ссылкой на эту раздачу с друзьями:
В контактеFacebookОдноклассникиTwitterLivejournalМой МирLiveinternet
 

 
Показать сообщения:    


Вы не можете начинать темы
Вы не можете отвечать на сообщения
Вы не можете редактировать свои сообщения
Вы не можете удалять свои сообщения
Вы не можете голосовать в опросах
Вы не можете прикреплять файлы к сообщениям
Вы можете скачивать файлы