Loading...
Error

Скачать Золото дураков / Fool's Gold (Энди Теннант) [2008, комедия, мелодрама, приключения, BDRip] [1080p] [Dub]+[AVO]+[Eng]+[Sub] торрент без регистрации

Статистика раздачи
Размер:  7,95 GB   |    Скачан:  6 раз
Сидов:  5  [  0 KB/s  ]   Личеров:  3  [  0 KB/s  ]  

 
 
 
Автор Сообщение

Marsianka

[] 

Информация о фильме
Название: Золото дураков
Оригинальное название: Fool's Gold
Год выпуска: 2008
Жанр: комедия, мелодрама, приключения
Выпущено: США, De Line Pictures, Warner Bros. Pictures Co.
Режиссер: Энди Теннант
В ролях: Мэттью МакКонахи, Кейт Хадсон, Дональд Сазерленд, Алексис Дзена, Юэн Бремнер, Рэй Уинстон, Кевин Харт, Мальколм-Джамал Уорнер, Брайан Хукс, Дэвид Робертс, Майкл Малхерен, Адам ЛеФевр, Роэн Никол, Роджер Скиберрас, Элизабет Коннолли, Али Аммоучи, Том О’Салливан, Эдвина Ричард, Дункан Янг, Люк Пеглер, Ксавьер Фернандез, А. Рамел Эл, Николас Купер, Эндрю Аллен, Гленн Сутер, Питер Уитфорд, Лоуренс Кой, Линда Кроппер, Клементайн Хит, Эшли Чидл, Джейсон Дандас, Тодд Ласанс, Рэй Булл, Валентино Дел Торо, Фрэнк Тернер, Билл Уотсон, Генри Браун, Тана Смит

Перевод: Дублированный, авторский

Сюжет фильма

История о двух кладоискателях, которые сначала развелись, разочаровавшись в своём увлечении и друг в друге, а затем разом напали на след настоящего сокровища...дель. Но тем не менее продолжают мчаться вперед, навстречу своей Судьбе.



Файл
Качество: BDRip 1080p (исходник Blu-ray)
Видео: 1920x796, 8 714 Кбит/сек, 23,976 кадр/сек, AVC, x264, High@L4.1, 0.238 Бит/[Пиксели*Кадры], 2pass
Аудио 1: AC-3, 384 Кбит/сек, 6 канала(ов), 48,0 КГц - Дублированный
Аудио 2: AC-3, 384 Кбит/сек, 6 канала(ов), 48,0 КГц - Авторский одноголосый [Юрий Немахов]
Аудио 3: AC-3, 640 Кбит/сек, 6 канала(ов), 48,0 КГц - Английский

Чаптеры: есть
Субтитры: Русские
Продолжительность: 01:52:27

Автор Рипа:


Format : Matroska
Format version : Version 2
File size : 7.95 GiB
Duration : 1h 52mn
Overall bit rate : 10.1 Mbps
Movie name : Zoloto durakov.(2008).BDRip.1080p[denis100]
Encoded date : UTC 2013-12-27 18:48:41
Writing application : mkvmerge v5.8.0 ('No Sleep / Pillow') built on Sep 2 2012 15:37:04
Writing library : libebml v1.2.3 + libmatroska v1.3.0

Video
ID : 1
Format : AVC
Format/Info : Advanced Video Codec
Format profile : High@L4.1
Format settings, CABAC : Yes
Format settings, ReFrames : 5 frames
Codec ID : V_MPEG4/ISO/AVC
Duration : 1h 52mn
Bit rate : 8 714 Kbps
Width : 1 920 pixels
Height : 796 pixels
Display aspect ratio : 2.40:1
Frame rate mode : Constant
Frame rate : 23.976 fps
Color space : YUV
Chroma subsampling : 4:2:0
Bit depth : 8 bits
Scan type : Progressive
Bits/(Pixel*Frame) : 0.238
Stream size : 6.69 GiB (84%)
Title : Zoloto durakov.(2008).BDRip.1080p[denis100]
Writing library : x264 core 140 r2377 1ca7bb9
Encoding settings : cabac=1 / ref=5 / deblock=1:-3:-3 / analyse=0x3:0x133 / me=umh / subme=11 / psy=1 / psy_rd=1.00:0.10 / mixed_ref=1 / me_range=32 / chroma_me=1 / trellis=2 / 8x8dct=1 / cqm=0 / deadzone=21,11 / fast_pskip=0 / chroma_qp_offset=-3 / threads=6 / lookahead_threads=1 / sliced_threads=0 / nr=0 / decimate=0 / interlaced=0 / bluray_compat=0 / constrained_intra=0 / bframes=6 / b_pyramid=2 / b_adapt=2 / b_bias=0 / direct=3 / weightb=1 / open_gop=0 / weightp=2 / keyint=240 / keyint_min=23 / scenecut=40 / intra_refresh=0 / rc=2pass / mbtree=0 / bitrate=8714 / ratetol=1.0 / qcomp=0.60 / qpmin=0 / qpmax=69 / qpstep=4 / cplxblur=20.0 / qblur=0.5 / ip_ratio=1.40 / pb_ratio=1.30 / aq=1:0.90
Language : English
Default : Yes
Forced : No

Audio #1
ID : 2
Format : AC-3
Format/Info : Audio Coding 3
Mode extension : CM (complete main)
Format settings, Endianness : Big
Codec ID : A_AC3
Duration : 1h 52mn
Bit rate mode : Constant
Bit rate : 384 Kbps
Channel count : 6 channels
Channel positions : Front: L C R, Side: L R, LFE
Sampling rate : 48.0 KHz
Bit depth : 16 bits
Compression mode : Lossy
Stream size : 309 MiB (4%)
Title : Дублированный
Language : Russian
Default : Yes
Forced : No

Audio #2
ID : 3
Format : AC-3
Format/Info : Audio Coding 3
Mode extension : CM (complete main)
Format settings, Endianness : Big
Codec ID : A_AC3
Duration : 1h 52mn
Bit rate mode : Constant
Bit rate : 384 Kbps
Channel count : 6 channels
Channel positions : Front: L C R, Side: L R, LFE
Sampling rate : 48.0 KHz
Bit depth : 16 bits
Compression mode : Lossy
Stream size : 309 MiB (4%)
Title : Авторский одноголосый [Юрий Немахов]
Language : Russian
Default : No
Forced : No

Audio #3
ID : 4
Format : AC-3
Format/Info : Audio Coding 3
Mode extension : CM (complete main)
Format settings, Endianness : Big
Codec ID : A_AC3
Duration : 1h 52mn
Bit rate mode : Constant
Bit rate : 640 Kbps
Channel count : 6 channels
Channel positions : Front: L C R, Side: L R, LFE
Sampling rate : 48.0 KHz
Bit depth : 16 bits
Compression mode : Lossy
Stream size : 515 MiB (6%)
Title : Английский
Language : English
Default : No
Forced : No

Text
ID : 5
Format : UTF-8
Codec ID : S_TEXT/UTF8
Codec ID/Info : UTF-8 Plain Text
Title : Русские
Language : Russian
Default : No
Forced : No

Menu
00:00:00.000 : en:00:00:00.000
00:06:51.411 : en:00:06:51.411
00:09:28.902 : en:00:09:28.902
00:15:07.573 : en:00:15:07.573
00:21:36.128 : en:00:21:36.128
00:25:33.365 : en:00:25:33.365
00:30:55.520 : en:00:30:55.520
00:35:23.788 : en:00:35:23.788
00:38:57.835 : en:00:38:57.835
00:47:10.995 : en:00:47:10.995
00:51:34.425 : en:00:51:34.425
00:56:03.026 : en:00:56:03.026
01:00:26.122 : en:01:00:26.122
01:02:48.598 : en:01:02:48.598
01:08:26.936 : en:01:08:26.936
01:13:28.237 : en:01:13:28.237
01:18:46.221 : en:01:18:46.221
01:25:29.291 : en:01:25:29.291
01:28:26.134 : en:01:28:26.134
01:32:18.700 : en:01:32:18.700
01:36:29.617 : en:01:36:29.617
01:39:50.484 : en:01:39:50.484
01:43:28.369 : en:01:43:28.369
01:46:46.066 : en:01:46:46.066
01:48:05.479 : en:01:48:05.479




Скачать Золото.дураков.Fool's.Gold.(Энди.Теннант).[2008.комедия.мелодрама.приключения.BDRip].[1080p].[Dub]+[AVO]+[Eng]+[Sub].torrent без регистрации
Золото ЗОЛОТАЯ РАЗДАЧА! СКАЧАННОЕ НЕ ЗАСЧИТЫВАЕТСЯ! Золото
Дата: Зарегистрирован   [ Тип: внешний ] Как тут cкачать?
MAGNET ссылка
MAGNET ссылка


Скачать .torrent

41 KB

Статус: проверено DHT
Скачан: торрент - 6 раз, раздача полностью - 0 раз
Размер: 7,95 GB
Оценка:  - (Голосов: 0)
Поблагодарили: 0
Поделиться ссылкой на эту раздачу с друзьями:
В контактеFacebookОдноклассникиTwitterLivejournalМой МирLiveinternet
 

 
Показать сообщения:    


Вы не можете начинать темы
Вы не можете отвечать на сообщения
Вы не можете редактировать свои сообщения
Вы не можете удалять свои сообщения
Вы не можете голосовать в опросах
Вы не можете прикреплять файлы к сообщениям
Вы можете скачивать файлы