Loading...
Error

Скачать Секретный агент / Miljung / The Age of Shadows (Ким Джи Ун) [2016, боевик, драма, триллер, BDRip-AVC] 2x[DVO (GREEN TEA, Колобок)]+[Eng]+[Sub Eng] торрент без регистрации

Статистика раздачи
Размер:  2,4 GB   |    Скачан:  29 раз
Сидов:  11  [  0 KB/s  ]  

 
 
 
Автор Сообщение

МихаНЕзатор

[] 

Информация о фильме
Название: Шпион / Секретный агент / Эпоха теней
Оригинальное название: Miljung / The Age of Shadows
Год выхода: 2016
Жанр: Боевик, драма, триллер
Режиссер: Ким Джи Ун

В ролях: Сон Кан Хо, Гон Ю, Син Сон Рок, Ом Тхэ Гу, Хан Джи Мин, Со Ён Чжу, Пак Хи Сун

Описание: Эпоха японской оккупации. Инспектор Ли Чон Чхоль, служит в японской полиции. При задержании погибает член сопротивления, который был его другом. Группа сопротивления хочет доставить партию взрывчатки в Кёнсон (Сеул), чтобы осуществить теракты против правительства Японии. В эту тёмную эпоху предательства и лжи, что победит в душе у Инспектора...



Страна: Южная Корея
Студия: Grimm Pictures, Harbin, Warner Bros.
Продолжительность: 02:20:44
Перевод(ы):
#1: Любительский (двухголосый закадровый) [GREEN TEA (Константин Романов и Ольга Гринтиева)]
#2: Любительский двухголосый | Колобок [2D по субтитрам Сергея Скворцова]
Субтитры: Английские

Файл
Формат: MKV
Качество: BDRip-AVC
Видео: AVC, 1024х428 (2.40:1), 1610 kbps, 23,976 fps, 0,153 bpp
Аудио 1: 48 kHz, AC3, 2.0, 192 Kbps | RUS |
Аудио 2: 48 kHz, AC3, 2.0, 192 Kbps | RUS |
Аудио 3: 48 kHz, AC3, 5.1, 448 Kbps | ENG |

Навигация по главам: есть

АНОНСЫ ПОПУЛЯРНЫХ РАЗДАЧ
General
Unique ID : 214023707653662496650277390465596354541 (0xA103777C2282A953964A4DBDDDDB6FED)
Complete name : D:The.Age.of.Shadows.2016.2xRus.BDRip.AVC.ExKinoRay.mkv
Format : Matroska
Format version : Version 2
File size : 2.40 GiB
Duration : 2 h 20 min
Overall bit rate : 2 440 kb/s
Movie name : Секретный агент (2016) from ExKinoRay
Encoded date : UTC 2017-06-04 05:06:16
Writing application : mkvmerge v5.8.0 ('No Sleep / Pillow') built on Sep 2 2012 15:37:04
Writing library : libebml v1.2.3 + libmatroska v1.3.0

Video
ID : 1
Format : AVC
Format/Info : Advanced Video Codec
Format profile : High@L4.1
Format settings, CABAC : Yes
Format settings, ReFrames : 14 frames
Codec ID : V_MPEG4/ISO/AVC
Duration : 2 h 20 min
Bit rate : 1 610 kb/s
Width : 1 024 pixels
Height : 428 pixels
Display aspect ratio : 2.40:1
Frame rate mode : Constant
Frame rate : 23.976 (24000/1001) FPS
Color space : YUV
Chroma subsampling : 4:2:0
Bit depth : 8 bits
Scan type : Progressive
Bits/(Pixel*Frame) : 0.153
Stream size : 1.53 GiB (64%)
Title : Enigma
Writing library : x264 core 144 r2525 40bb568
Encoding settings : cabac=1 / ref=14 / deblock=1:-3:-3 / analyse=0x3:0x113 / me=umh / subme=10 / psy=1 / psy_rd=1.03:0.07 / mixed_ref=1 / me_range=32 / chroma_me=1 / trellis=2 / 8x8dct=1 / cqm=0 / deadzone=21,11 / fast_pskip=1 / chroma_qp_offset=-3 / threads=12 / lookahead_threads=2 / sliced_threads=0 / nr=0 / decimate=0 / interlaced=0 / bluray_compat=0 / constrained_intra=0 / bframes=9 / b_pyramid=2 / b_adapt=2 / b_bias=0 / direct=3 / weightb=1 / open_gop=0 / weightp=2 / keyint=240 / keyint_min=23 / scenecut=40 / intra_refresh=0 / rc_lookahead=40 / rc=2pass / mbtree=0 / bitrate=1610 / ratetol=1.0 / qcomp=0.60 / qpmin=0 / qpmax=51 / qpstep=4 / cplxblur=20.0 / qblur=0.5 / vbv_maxrate=50000 / vbv_bufsize=62500 / nal_hrd=none / filler=0 / ip_ratio=1.40 / pb_ratio=1.30 / aq=1:1.00
Language : English
Default : Yes
Forced : No
Color range : Limited
Color primaries : BT.709
Transfer characteristics : BT.709
Matrix coefficients : BT.709

Audio #1
ID : 2
Format : AC-3
Format/Info : Audio Coding 3
Mode extension : CM (complete main)
Format settings, Endianness : Big
Codec ID : A_AC3
Duration : 2 h 20 min
Bit rate mode : Constant
Bit rate : 192 kb/s
Channel(s) : 2 channels
Channel positions : Front: L R
Sampling rate : 48.0 kHz
Frame rate : 31.250 FPS (1536 spf)
Compression mode : Lossy
Stream size : 193 MiB (8%)
Title : DVO (GREEN TEA)
Language : Russian
Default : Yes
Forced : No

Audio #2
ID : 3
Format : AC-3
Format/Info : Audio Coding 3
Mode extension : CM (complete main)
Format settings, Endianness : Big
Codec ID : A_AC3
Duration : 2 h 20 min
Bit rate mode : Constant
Bit rate : 192 kb/s
Channel(s) : 2 channels
Channel positions : Front: L R
Sampling rate : 48.0 kHz
Frame rate : 31.250 FPS (1536 spf)
Compression mode : Lossy
Stream size : 193 MiB (8%)
Title : DVO (Студия Колобок)
Language : Russian
Default : No
Forced : No

Audio #3
ID : 4
Format : AC-3
Format/Info : Audio Coding 3
Mode extension : CM (complete main)
Format settings, Endianness : Big
Codec ID : A_AC3
Duration : 2 h 20 min
Bit rate mode : Constant
Bit rate : 448 kb/s
Channel(s) : 6 channels
Channel positions : Front: L C R, Side: L R, LFE
Sampling rate : 48.0 kHz
Frame rate : 31.250 FPS (1536 spf)
Compression mode : Lossy
Stream size : 451 MiB (18%)
Language : English
Default : No
Forced : No

Text
ID : 5
Format : UTF-8
Codec ID : S_TEXT/UTF8
Codec ID/Info : UTF-8 Plain Text
Title : Full
Language : English
Default : No
Forced : No

Menu
00:00:00.000 : en:00:00:00.000
00:12:23.159 : en:00:12:23.159
00:19:22.912 : en:00:19:22.912
00:25:13.595 : en:00:25:13.595
00:35:21.494 : en:00:35:21.494
00:49:13.117 : en:00:49:13.117
00:59:53.090 : en:00:59:53.090
01:08:42.368 : en:01:08:42.368
01:18:15.733 : en:01:18:15.733
01:32:29.627 : en:01:32:29.627
01:39:12.363 : en:01:39:12.363
01:48:47.271 : en:01:48:47.271
02:00:13.498 : en:02:00:13.498
02:12:56.886 : en:02:12:56.886




Скачать Секретный.агент.Miljung.The.Age.of.Shadows.(Ким.Джи.Ун).[2016.боевик.драма.триллер.BDRip-AVC].2x[DVO.(GREEN.TEA.Колобок)]+[Eng]+[Sub.Eng].torrent без регистрации
Золото ЗОЛОТАЯ РАЗДАЧА! СКАЧАННОЕ НЕ ЗАСЧИТЫВАЕТСЯ! Золото
Дата: Зарегистрирован   [ Тип: внешний ] Как тут cкачать?
MAGNET ссылка
MAGNET ссылка


Скачать .torrent

13 KB

Статус: проверено DHT
Скачан: торрент - 29 раз, раздача полностью - 41 раз
Размер: 2,4 GB
Оценка:  5 (Голосов: 1)
Поблагодарили: 4
Поделиться ссылкой на эту раздачу с друзьями:
В контактеFacebookОдноклассникиTwitterLivejournalМой МирLiveinternet
 

 
Показать сообщения:    


Вы не можете начинать темы
Вы не можете отвечать на сообщения
Вы не можете редактировать свои сообщения
Вы не можете удалять свои сообщения
Вы не можете голосовать в опросах
Вы не можете прикреплять файлы к сообщениям
Вы можете скачивать файлы