Loading...
Error

Скачать Здравствуйте, я ваша тетя! (Виктор Титов) [1975, комедия, HDTVRip] [720p] торрент без регистрации

Статистика раздачи
Размер:  2,64 GB   |    Скачан:  72 раза

Полного источника не было: 26 минут

 
 
 
Автор Сообщение

Marsianka

[] 

Информация о фильме
Название: Здравствуйте, я ваша тетя!
Год выхода: 1975
Жанр: комедия
Режиссер: Виктор Титов
В ролях: Александр Калягин, Армен Джигарханян, Михаил Любезнов, Олег Шкловский, Михаил Козаков, Тамара Носова, Татьяна Веденеева, Татьяна Васильева, Галина Орлова (II), Валентин Гафт, Виктор Гайнов, Анатолий Малашкин, Владимир Коровкин, Рогволд Суховерко, Антон Макаров, Юрий Прохоров, Николай Тагин, Александр Макаров

О фильме:
Действие фильма происходит в начале XX века. Безработный Бабс Баберлей (Александр Калягин) случайно попадает в богатый дом. Здесь его уже ждут два молодых джентльмена, правда, нужен им не Бабс, а тетушка-миллионерша донна Роза д’Альвадорец, вдова дона Педро из Бразилии, где «много-много диких обезьян», кем главный герой и становится, в надежде скрыться от полиции. Такая заваруха затеяна, дабы донна Роза, располагая своим авторитетом и состоянием, сумела убедить опекуна двух прелестных девушек, возлюбленных джентльменов, к коим и попал Бабс, разрешить замужество до 25-ти лет, сохраняя право на получение приданного. Тем временем, богатая «тётушка» привлекает к себе внимание хромого полковника Чеснея (Михаил Козаков) и вышеупомянутого опекуна судьи Кригса (Армен Джигарханян), страстно желающих поправить свое материальное положение. Кстати, Джигарханян, игравший Чеснея в театре, изначально пробовался на эту роль. Но режиссер Виктор Титов увидел его Кригсом. И все бы ничего… но тут приезжает настоящая тётя Роза. По мотивам пьесы Б. Томаса «Тетка Чарлея».



Страна: СССР
Продолжительность: 01:37:10
Перевод: не требуется

Файл
Кодек: MKV
Качество: HDTVRip 720p
Видео: AVC High@L4.1, ~3700 Кбит/с, 954x716
Звук: AC3, 2 ch, 192 Кбит/с
General
Unique ID : 183077039273824022295014247915098952790 (0x89BB5AEED3E475AE857DC961A43F5456)
Complete name : F:FILMSЗдравствуйте, я ваша тетя!.(1975).HDTVRIP.720p.[-=DoMiNo=-].mkv
Format : Matroska
Format version : Version 4 / Version 2
File size : 2.64 GiB
Duration : 1 h 37 min
Overall bit rate : 3 894 kb/s
Movie name : Здравствуйте, я ваша тетя!
Deion : По мотивам пьесы Б. Томаса «Тетка Чарлея». Действие происходит в начале ХХ века. Безработный Бабс попадает в богатый дом, где вынужден, переодевшись в женскую одежду, сыграть роль тетушки-миллионерши, чтобы помочь двум юношам жениться на их возлюбленных…
Encoded date : UTC 2017-06-05 14:33:11
Writing application : mkvmerge v12.0.0 ('Trust / Lust') 64bit
Writing library : libebml v1.3.4 + libmatroska v1.4.5 / Lavf57.71.100
Attachments : poster.jpg
ACTORS : Александр Калягин, Михаил Козаков, Армен Джигарханян, Валентин Гафт, Татьяна Васильева, Тамара Носова, Татьяна Веденеева, Михаил Любезнов, Олег Шкловский, Галина Орлова, Виктор Гайнов, Владимир Коровкин, Николай Тагин, Антон Макаров, Анатолий Малашкин, Юрий Прохоров, Рогволд Суховерко, Александр Макаров, Анатолий Сливников
COMPOSER : Владислав Казенин
COUNTRY : СССР
DATE : 1975
DIRECTOR : Виктор Титов
GENRE : комедия
HD_VIDEO : 1
IMDB_RATING : 7.70
ITUNEXTC : ru-movie|6+|150|
Language : und
MEDIA_TYPE : 9
RATING : 7.936
WRITER : Виктор Титов, Брэндон Томас

Video
ID : 1
Format : AVC
Format/Info : Advanced Video Codec
Format profile : High@L4.1
Format settings, CABAC : Yes
Format settings, ReFrames : 9 frames
Codec ID : V_MPEG4/ISO/AVC
Duration : 1 h 37 min
Bit rate : 3 700 kb/s
Width : 954 pixels
Height : 716 pixels
Display aspect ratio : 4:3
Frame rate mode : Constant
Frame rate : 25.000 FPS
Color space : YUV
Chroma subsampling : 4:2:0
Bit depth : 8 bits
Scan type : Progressive
Bits/(Pixel*Frame) : 0.217
Stream size : 2.51 GiB (95%)
Title : 720p_RIP_BY_-=DoMiNo=-
Writing library : x264 core 150 r2833M df79067
Encoding settings : cabac=1 / ref=9 / deblock=1:-3:-3 / analyse=0x3:0x133 / me=umh / subme=11 / psy=1 / psy_rd=1.00:0.10 / mixed_ref=1 / me_range=48 / chroma_me=1 / trellis=2 / 8x8dct=1 / cqm=0 / deadzone=21,11 / fast_pskip=0 / chroma_qp_offset=-3 / threads=6 / lookahead_threads=1 / sliced_threads=0 / nr=0 / decimate=1 / interlaced=0 / bluray_compat=0 / constrained_intra=0 / bframes=12 / b_pyramid=2 / b_adapt=2 / b_bias=0 / direct=3 / weightb=1 / open_gop=0 / weightp=2 / keyint=250 / keyint_min=25 / scenecut=40 / intra_refresh=0 / rc=2pass / mbtree=0 / bitrate=3700 / ratetol=1.0 / qcomp=0.60 / qpmin=0 / qpmax=69 / qpstep=4 / cplxblur=20.0 / qblur=0.5 / ip_ratio=1.40 / pb_ratio=1.30 / aq=1:1.00
Language : Russian
Default : Yes
Forced : No

Audio
ID : 2
Format : AC-3
Format/Info : Audio Coding 3
Format settings, Endianness : Big
Codec ID : A_AC3
Duration : 1 h 37 min
Bit rate mode : Constant
Bit rate : 192 kb/s
Channel(s) : 2 channels
Channel positions : Front: L R
Sampling rate : 48.0 kHz
Frame rate : 31.250 FPS (1536 spf)
Bit depth : 16 bits
Compression mode : Lossy
Stream size : 133 MiB (5%)
Title : AC3, 2 ch, 192 kbps
Language : Russian
Service kind : Complete Main
Default : Yes
Forced : No

Menu
00:00:00.000 : :Глава 1
00:06:04.160 : :Глава 2
00:11:27.200 : :Глава 3
00:17:32.319 : :Глава 4
00:24:27.520 : :Глава 5
00:30:07.359 : :Глава 6
00:35:29.639 : :Глава 7
00:41:42.760 : :Глава 8
00:48:55.559 : :Глава 9
00:56:09.160 : :Глава 10
01:02:47.720 : :Глава 11
01:09:34.680 : :Глава 12
01:16:38.680 : :Глава 13
01:23:09.240 : :Глава 14
01:28:23.320 : :Глава 15
01:33:03.960 : :Глава 16



Скачать Здравствуйте.я.ваша.тетя!.(Виктор.Титов).[1975.комедия.HDTVRip].[720p].torrent без регистрации
Золото ЗОЛОТАЯ РАЗДАЧА! СКАЧАННОЕ НЕ ЗАСЧИТЫВАЕТСЯ! Золото
Дата: Зарегистрирован   [ Тип: внутренний ] Как тут cкачать?
MAGNET ссылка
MAGNET ссылка


Скачать .torrent

14 KB

Статус: проверено DHT
Скачан: торрент - 72 раз, раздача полностью - 28 раз
Размер: 2,64 GB
Оценка:  - (Голосов: 0)
Поблагодарили: 1
Поделиться ссылкой на эту раздачу с друзьями:
В контактеFacebookОдноклассникиTwitterLivejournalМой МирLiveinternet
 

 
Показать сообщения:    


Вы не можете начинать темы
Вы не можете отвечать на сообщения
Вы не можете редактировать свои сообщения
Вы не можете удалять свои сообщения
Вы не можете голосовать в опросах
Вы не можете прикреплять файлы к сообщениям
Вы можете скачивать файлы