Loading...
Error

Скачать Собачья жизнь / A Dog's Purpose (Лассе Халльстрём) [2017, Фэнтези, драма, комедия, приключения, BDRip] [720p] [DUB] [iTunes] [R.G. GoldenShara] торрент без регистрации

Статистика раздачи
Размер:  2,18 GB   |    Скачан:  132 раза

Полного источника не было: 11 часов

 
 
 
Автор Сообщение

LORDKILL

[] 


Собачья жизнь / A Dog's Purpose


Год выпуска: 2017
Выпущено: США
Жанр: Фэнтези, драма, комедия, приключения
Продолжительность: 01:40:02
Перевод: Профессиональный (полное дублирование)
Субтитры: Русские (форс.)

Режиссер: Лассе Халльстрём

В ролях: Джош Гэд, Дэннис Куэйд, Пегги Липтон, Кей Джей Апа, Брайс Гейзар, Джульет Райлэнс, Люк Кирби, Габриель Роз, Майкл Бофшевер, Бритт Робертсон

Описание: Собаки бывают разных пород, мастей и размеров. Они — наши самые верные и преданные друзья, а мы учим их хорошим манерам. Собаки всегда думают о нас, правда, иногда и о беконе. Все они каждый день провожают и встречают нас у порога в уверенности, что пока им есть, кого облизывать и любить, в их жизни есть смысл







Качество: BDRip 720p
Формат: MKV
Видео кодек: H.264
Аудио кодек: AC3
Видео: 1280x536 (2.40:1), 2730 kbps, 23.976 fps
Аудио: Русский (AC-3, 6ch, 384 kbps)

x264 [info]: frame I:1429 Avg QP:16.34 size:119606
x264 [info]: frame P:39561 Avg QP:19.53 size: 26393
x264 [info]: frame B:102919 Avg QP:22.07 size: 8098
x264 [info]: consecutive B-frames: 5.6% 8.1% 12.9% 21.4% 20.9% 26.5% 3.0% 1.0% 0.6%
x264 [total]: encoded 143909 frames, 8.55 fps, 2730.27 kb/s
General
Unique ID : 198170916954285926741140619884045199748 (0x9516548EFE19690BB865C97EB512E984)
Complete name : E:\ФИЛЬМЫ\Собачья.жизнь.2017.x264.BDRip.720p.DUB.mkv
Format : Matroska
Format version : Version 4 / Version 2
File size : 2.18 GiB
Duration : 1 h 40 min
Overall bit rate : 3 116 kb/s
Movie name : Собачья жизнь / A Dog's Purpose (2017) - #LORDKILL#
Encoded date : UTC 2017-06-13 17:57:17
Writing application : mkvmerge v9.9.0 ('Pick Up') 64bit
Writing library : libebml v1.3.4 + libmatroska v1.4.5

Video
ID : 1
Format : AVC
Format/Info : Advanced Video Codec
Format profile : High@L4.1
Format settings, CABAC : Yes
Format settings, ReFrames : 11 frames
Codec ID : V_MPEG4/ISO/AVC
Duration : 1 h 40 min
Bit rate : 2 730 kb/s
Width : 1 280 pixels
Height : 536 pixels
Display aspect ratio : 2.40:1
Frame rate mode : Constant
Frame rate : 23.976 (24000/1001) FPS
Color space : YUV
Chroma subsampling : 4:2:0
Bit depth : 8 bits
Scan type : Progressive
Bits/(Pixel*Frame) : 0.166
Stream size : 1.91 GiB (88%)
Writing library : x264 core 146 r2538 121396c
Encoding settings : cabac=1 / ref=11 / deblock=1:-3:-3 / analyse=0x3:0x113 / me=umh / subme=11 / psy=1 / psy_rd=1.00:0.10 / mixed_ref=1 / me_range=32 / chroma_me=1 / trellis=2 / 8x8dct=1 / cqm=0 / deadzone=21,11 / fast_pskip=0 / chroma_qp_offset=-3 / threads=12 / lookahead_threads=2 / sliced_threads=0 / nr=0 / decimate=1 / interlaced=0 / bluray_compat=0 / constrained_intra=0 / bframes=8 / b_pyramid=2 / b_adapt=2 / b_bias=0 / direct=3 / weightb=1 / open_gop=0 / weightp=2 / keyint=240 / keyint_min=23 / scenecut=40 / intra_refresh=0 / rc=2pass / mbtree=0 / bitrate=2730 / ratetol=1.0 / qcomp=0.60 / qpmin=0 / qpmax=69 / qpstep=4 / cplxblur=20.0 / qblur=0.5 / ip_ratio=1.40 / pb_ratio=1.30 / aq=1:1.00
Default : Yes
Forced : No

Audio
ID : 2
Format : AC-3
Format/Info : Audio Coding 3
Mode extension : CM (complete main)
Format settings, Endianness : Big
Codec ID : A_AC3
Duration : 1 h 40 min
Bit rate mode : Constant
Bit rate : 384 kb/s
Channel(s) : 6 channels
Channel positions : Front: L C R, Side: L R, LFE
Sampling rate : 48.0 kHz
Frame rate : 31.250 FPS (1536 spf)
Bit depth : 16 bits
Compression mode : Lossy
Stream size : 275 MiB (12%)
Title : Дубляж - iTunes
Language : Russian
Default : Yes
Forced : No

Text
ID : 3
Format : UTF-8
Codec ID : S_TEXT/UTF8
Codec ID/Info : UTF-8 Plain Text
Duration : 55 min 32 s
Bit rate : 1 b/s
Count of elements : 12
Stream size : 552 Bytes (0%)
Title : форсированные
Language : Russian
Default : Yes
Forced : No

Menu
00:00:00.000 : en:00:00:00.000
00:04:39.779 : en:00:04:39.779
00:08:54.409 : en:00:08:54.409
00:14:10.308 : en:00:14:10.308
00:17:46.482 : en:00:17:46.482
00:22:38.607 : en:00:22:38.607
00:28:33.003 : en:00:28:33.003
00:33:45.482 : en:00:33:45.482
00:37:26.703 : en:00:37:26.703
00:42:16.117 : en:00:42:16.117
00:48:31.534 : en:00:48:31.534
00:51:24.248 : en:00:51:24.248
00:56:04.736 : en:00:56:04.736
01:01:12.669 : en:01:01:12.669
01:05:40.311 : en:01:05:40.311
01:12:03.069 : en:01:12:03.069
01:16:24.497 : en:01:16:24.497
01:21:07.988 : en:01:21:07.988
01:27:57.939 : en:01:27:57.939
01:33:40.615 : en:01:33:40.615





Скачать Собачья.жизнь.A.Dog's.Purpose.(Лассе.Халльстрём).[2017.Фэнтези.драма.комедия.приключения.BDRip].[720p].[DUB].[iTunes].[R.G.GoldenShara].torrent без регистрации
Золото ЗОЛОТАЯ РАЗДАЧА! СКАЧАННОЕ НЕ ЗАСЧИТЫВАЕТСЯ! Золото
Дата: Зарегистрирован   [ Тип: внутренний ] Как тут cкачать?
MAGNET ссылка
MAGNET ссылка


Скачать .torrent

11 KB

Статус: проверено
Скачан: торрент - 132 раз, раздача полностью - 115 раз
Размер: 2,18 GB
Оценка:  5 (Голосов: 3)
Поблагодарили: 11
Поделиться ссылкой на эту раздачу с друзьями:
В контактеFacebookОдноклассникиTwitterLivejournalМой МирLiveinternet
 

 
Показать сообщения:    


Вы не можете начинать темы
Вы не можете отвечать на сообщения
Вы не можете редактировать свои сообщения
Вы не можете удалять свои сообщения
Вы не можете голосовать в опросах
Вы не можете прикреплять файлы к сообщениям
Вы можете скачивать файлы