Loading...
Error

Скачать Любовь любит ложь / Aşk yalani sever (01х01-03 из 07) (Бану Акдениз) [2016, комедия, романтика, WEBRip] [720p] [VO (RusFilm)] торрент без регистрации

Статистика раздачи
Размер:  3,4 GB   |    Скачан:  2 раза

Полного источника не было: 30 минут


 
 
 
Автор Сообщение

МихаНЕзатор

[] 

Название: Любовь любит ложь
Оригинальное название: Aşk yalani sever
Год выпуска: 2016
Жанр: комедия, романтика
Выпущено: Турция, Mia Film
Режиссер: Бану Акдениз

В ролях: Эрен Хаджисалихоглу, Седа Гювен, Исмаиль Эге Шашмаз, Бусе Арслан, Илхан Шешен, Унал Силвер, Ешим Гюль, Макбуле Мейзиноглу

Описание сериала: Последнее желание Хюсейна Кочоглу, лежащего на смертном одре, чтобы нашли его внучку Эдже, которую он не признал много лет назад. Чтобы исполнить это пожелание, другой его внук Ферит делает всё, что в его силах, но никак не находит ее. В конце концов, он соглашается на то, чтобы представить деду другую девушку в качестве его внукчи, но всё пойдёт не так, как он ожидал…



Страна: Турция
Продолжительность: ~ 02:18:10
Перевод: Любительский (одноголосый)
Субтитры:
Отсутствуют

Озвучено студией RusFilm

Текст читал: Андрей Юрченко
Сведение и монтаж: Руслан Раскопин

Файл
Формат: MKV
Качество: WEBRip (720p)
Видео: MPEG-4 AVC, ~ 2000 Кбит/с, 1280x720
Аудио: 48 kHz, AC3 Dolby Digital, 2/0 (L,R) ch, ~192 kbps

АНОНСЫ ПОПУЛЯРНЫХ РАЗДАЧ


Торрент обновлён, добавлена 3-я серия!

Format : Matroska
Format version : Version 2
File size : 1.24 GiB
Duration : 2h 18mn
Overall bit rate : 1 280 Kbps
Writing application : libmatroska 1.4.1
Writing library : SolveigMM Matroska Muxer Version 1.0.1502.31

Video
ID : 1
Format : AVC
Format/Info : Advanced Video Codec
Format profile : Main@L3.1
Format settings, CABAC : Yes
Format settings, ReFrames : 3 frames
Codec ID : V_MPEG4/ISO/AVC
Duration : 2h 18mn
Bit rate : 2000 Kbps
Width : 1 280 pixels
Height : 720 pixels
Display aspect ratio : 16:9
Frame rate mode : Constant
Frame rate : 25.000 fps
Color space : YUV
Chroma subsampling : 4:2:0
Bit depth : 8 bits
Scan type : Progressive
Bits/(Pixel*Frame) : 0.046
Stream size : 1.03 GiB (83%)
Writing library : x264 core 146
Encoding settings : cabac=1 / ref=1 / deblock=1:0:0 / analyse=0x1:0x1 / me=dia / subme=1 / psy=1 /

psy_rd=1.00:0.00 / mixed_ref=0 / me_range=16 / chroma_me=1 / trellis=0 / 8x8dct=0 / cqm=0 / deadzone=21,11 /

fast_pskip=1 / chroma_qp_offset=0 / threads=3 / lookahead_threads=1 / sliced_threads=0 / nr=0 / decimate=1 /

interlaced=0 / bluray_compat=0 / constrained_intra=0 / bframes=3 / b_pyramid=2 / b_adapt=1 / b_bias=0 /

direct=1 / weightb=1 / open_gop=0 / weightp=1 / keyint=250 / keyint_min=25 / scenecut=40 / intra_refresh=0 /

rc=crf / mbtree=0 / crf=23.0 / qcomp=0.60 / qpmin=0 / qpmax=69 / qpstep=4 / ip_ratio=1.40 / pb_ratio=1.30 /

aq=1:1.00
Language : English
Default : No
Forced : No

Audio
ID : 2
Format : AC-3
Format/Info : Audio Coding 3
Mode extension : CM (complete main)
Format settings, Endianness : Big
Codec ID : A_AC3
Duration : 2h 18mn
Bit rate mode : Constant
Bit rate : 192 Kbps
Channel(s) : 2 channels
Channel positions : Front: L R
Sampling rate : 48.0 KHz
Frame rate : 31.250 fps (1536 spf)
Bit depth : bit0
Compression mode : Lossy
Stream size : 190 MiB (15%)
Language : English
Default : No
Forced : No
Внимание! Раздача ведётся путём добавления новых серий; при каждом добавлении создаётся новый торрент. Чтобы начать докачку новой серии, пользователям необходимо сделать следующее:(1) остановить скачивание,
(2) удалить старый торрент у себя из клиента (старые серии удалять не надо),
(3) скачать новый торрент и запустить его у себя в клиенте вместо старого, при этом указать клиенту путь в старую папку куда и должно происходить скачивание новых серий.

Ваш клиент при этом должен произвести хеширование (проверку) старой папки (если не производит сам - помогите ему сделать это), и будет докачивать только те серии которых у вас ещё нет. Старые серии при этом
не удаляются, а продолжают раздаваться!
Eсли вы уже удалили старые серии, то предотвратить повторную закачку старых серий можно, отжав галочку в соответсвующих местах при запуске нового торрента. По возможности, желательно не удалять старые серии как можно дольше чтобы релизёр не столько продолжал раздавать старые серии, а смог сконцентрироваться на новых.




Скачать Любовь.любит.ложь.Aşk.yalani.sever.(01х01-03.из.07).(Бану.Акдениз).[2016.комедия.романтика.WEBRip].[720p].[VO.(RusFilm)].torrent без регистрации
Золото ЗОЛОТАЯ РАЗДАЧА! СКАЧАННОЕ НЕ ЗАСЧИТЫВАЕТСЯ! Золото
Дата: Зарегистрирован   [ Тип: внутренний ] Как тут cкачать?
MAGNET ссылка
MAGNET ссылка


Скачать .torrent

18 KB

Статус: проверено DHT
Скачан: торрент - 2 раз, раздача полностью - 1 раз
Размер: 3,4 GB
Оценка:  - (Голосов: 0)
Поблагодарили: 0
Поделиться ссылкой на эту раздачу с друзьями:
В контактеFacebookОдноклассникиTwitterLivejournalМой МирLiveinternet
 

 
Показать сообщения:    


Вы не можете начинать темы
Вы не можете отвечать на сообщения
Вы не можете редактировать свои сообщения
Вы не можете удалять свои сообщения
Вы не можете голосовать в опросах
Вы не можете прикреплять файлы к сообщениям
Вы можете скачивать файлы