Loading...
Error

Скачать Доспехи бога: В поисках сокровищ / Кунг-фу йога / Gong fu yu jia (Стэнли Тун) [2017, боевик, комедия, детектив, приключения, BDRip] [1080p] [Dub] [Лицензия] [R.G. Goldenshara] торрент без регистрации

Статистика раздачи
Размер:  4,37 GB   |    Скачан:  179 раз
Сидов:  215  [  86 KB/s  ]   Личеров:  12  [  0 KB/s  ]  
 
 
 
Автор Сообщение

sobmaster

[] 



Доспехи бога: В поисках сокровищ / Кунг-фу йога
Gong fu yu jia




Год выпуска: 2017
Страна: Индия , Китай
Выпущено: Shinework Pictures, Sparkle Roll Media, Taihe Entertainment
Жанр: боевик, комедия, детектив, приключения

Продолжительность: 01:47:00
Перевод: Профессиональный (полное дублирование) (Лицензия)
Режиссер: Стэнли Тун
Сценарий: Стэнли Тун
Продюсер: Ци Цзяньхун, Джонатан Шэнь, Барби Тун
Оператор: Хорас Вон
Композитор : Нэйтан Ван
Художник: Джеймс Чун, Ранджит Сингх, У Чжэнь
Монтаж: Эрик Квон
В ролях:


Джеки Чан (Jack), Диша Патани (Ashmita), Амира Дастур (Kyra), Мия Муци (Nuomin), Сону Суд (Randall), Эрик Цан, Аариф Ли (Jones Lee), Чжан Исин (Xiaoguang), Темур Мамисашвили (Hit Man), Фатих Угурлу (Randall's Man), Дэмиэн Мевис (Mercenary), Джоэль Адриан (Hit Man), Пол Филип Кларк (Max), Кевин Ли (Hit Man), Дэвид Торок (Hit Man), Адам Стоун (Body Guard)
Роли дублировали: Андрей Бархударов (Jack), Татьяна Ермилова (Kyra), Мария Борисова (Nuomin), Алексей Мясников (Randall), Борис Шувалов (Эрик Цан), Александр Носков, Артем Маликов, Илья Бледный (Jones Lee), Глеб Гаврилов (Xiaoguang), Андрей Казанцев (Чжан Голи)
Бюджет: $65 000 000
Сборы в США: $362 657
Сборы в мире: $254 212 245
Сборы в России: $758 379
Зрители: Россия 182 тыс.
Мировая премьера: 26 января 2017
Премьера (РФ): 8 мая 2017, «Централ Партнершип»
MPAA: - Детям до 13 лет просмотр не желателен

Описание: Профессора археологии Джека Си ждет по-настоящему увлекательное приключение. Нужно разгадать массу загадок и найти несметные сокровища древнего королевства. За самым большим кладом в истории охотится еще и могущественный преступный синдикат.
Джеку вместе с командой предстоит проявить умения и смекалку, и завоевать сердце принцессы.


Качество: BDRip 1080p
Контейнер: MKV
Видео: AVC, 1920x808 (2.40:1), 5400 kbps, 24,000 fps, 0.145 bpp
Аудио: русский /; AC3 /; 5.1 /; 48 kHz /; 448 kbps /; 16 bit; ||
Субтитры: английские
Навигация по главам: есть

АНОНСЫ ПОПУЛЯРНЫХ РАЗДАЧ

  • Фильм является сиквелом картины «Миф» (Стэнли Тун, 2005). Джеки Чан в обоих случаях играет археолога.

Код:

General
Unique ID                                : 199289527176955359978986028105252807750 (0x95EDC44CF54530D898909371F18D2446)
Complete name                            : E:\Мои рипы\Доспехи бога.В поисках сокровищ.2017.BDRip.1080p.DUB.mkv
Format                                   : Matroska
Format version                           : Version 4 / Version 2
File size                                : 4.37 GiB
Duration                                 : 1h 47mn
Overall bit rate                         : 5 850 Kbps
Movie name                               : Kung.Fu.Yoga.2017   #TorpedoUK#
Encoded date                             : UTC 2017-11-19 17:58:09
Writing application                      : mkvmerge v6.8.0 ('Theme for Great Cities') 64bit built on Mar  2 2014 21:34:26
Writing library                          : libebml v1.3.0 + libmatroska v1.4.1

Video
ID                                       : 1
Format                                   : AVC
Format/Info                              : Advanced Video Codec
Format profile                           : High@L4.1
Format settings, CABAC                   : Yes
Format settings, ReFrames                : 5 frames
Codec ID                                 : V_MPEG4/ISO/AVC
Duration                                 : 1h 47mn
Bit rate                                 : 5 400 Kbps
Width                                    : 1 920 pixels
Height                                   : 808 pixels
Display aspect ratio                     : 2.40:1
Frame rate mode                          : Constant
Frame rate                               : 24.000 fps
Color space                              : YUV
Chroma subsampling                       : 4:2:0
Bit depth                                : 8 bits
Scan type                                : Progressive
Bits/(Pixel*Frame)                       : 0.145
Stream size                              : 3.95 GiB (90%)
Writing library                          : x264 core 146 r2538 121396c
Encoding settings                        : cabac=1 / ref=5 / deblock=1:-3:-3 / analyse=0x3:0x113 / me=umh / subme=11 / psy=1 / psy_rd=1.00:0.15 / mixed_ref=1 / me_range=48 / chroma_me=1 / trellis=2 / 8x8dct=1 / cqm=0 / deadzone=21,11 / fast_pskip=0 / chroma_qp_offset=-4 / threads=6 / lookahead_threads=1 / sliced_threads=0 / nr=0 / decimate=0 / interlaced=0 / bluray_compat=0 / constrained_intra=0 / bframes=8 / b_pyramid=2 / b_adapt=2 / b_bias=0 / direct=2 / weightb=1 / open_gop=0 / weightp=2 / keyint=250 / keyint_min=24 / scenecut=40 / intra_refresh=0 / rc_lookahead=50 / rc=2pass / mbtree=0 / bitrate=5400 / ratetol=1.0 / qcomp=0.60 / qpmin=0 / qpmax=69 / qpstep=4 / cplxblur=20.0 / qblur=0.5 / vbv_maxrate=14000 / vbv_bufsize=14000 / nal_hrd=none / filler=0 / ip_ratio=1.40 / pb_ratio=1.30 / aq=2:1.00
Language                                 : English
Default                                  : Yes
Forced                                   : No
Color primaries                          : Generic film
Matrix coefficients                      : YCgCo

Audio
ID                                       : 2
Format                                   : AC-3
Format/Info                              : Audio Coding 3
Mode extension                           : CM (complete main)
Format settings, Endianness              : Big
Codec ID                                 : A_AC3
Duration                                 : 1h 47mn
Bit rate mode                            : Constant
Bit rate                                 : 448 Kbps
Channel(s)                               : 6 channels
Channel positions                        : Front: L C R, Side: L R, LFE
Sampling rate                            : 48.0 KHz
Bit depth                                : 16 bits
Compression mode                         : Lossy
Delay relative to video                  : 16ms
Stream size                              : 343 MiB (8%)
Title                                    : Дубляж
Language                                 : Russian
Default                                  : Yes
Forced                                   : No

Text
ID                                       : 3
Format                                   : UTF-8
Codec ID                                 : S_TEXT/UTF8
Codec ID/Info                            : UTF-8 Plain Text
Title                                    : Full
Language                                 : English
Default                                  : No
Forced                                   : No

Menu
00:00:00.000                             : en:Chapter 01
00:10:49.708                             : en:Chapter 02
00:19:09.125                             : en:Chapter 03
00:27:54.708                             : en:Chapter 04
00:36:04.125                             : en:Chapter 05
00:43:04.416                             : en:Chapter 06
00:56:54.166                             : en:Chapter 07
01:03:21.083                             : en:Chapter 08
01:11:30.750                             : en:Chapter 09
01:22:44.166                             : en:Chapter 10
01:30:59.291                             : en:Chapter 11
01:38:54.541                             : en:Chapter 12


Раздаю ночью с 0.00 до 7.00 до 5 скачавших. На раздачи не возвращаюсь.






Скачать Доспехи.бога.В.поисках.сокровищ.Кунг-фу.йога.Gong.fu.yu.jia.(Стэнли.Тун).[2017.боевик.комедия.детектив.приключения.BDRip].[1080p].[Dub].[Лицензия].[R.G.Goldenshara].torrent без регистрации
Золото ЗОЛОТАЯ РАЗДАЧА! СКАЧАННОЕ НЕ ЗАСЧИТЫВАЕТСЯ! Золото
Дата: Зарегистрирован   [ Тип: внешний ] Как тут cкачать?
MAGNET ссылка
MAGNET ссылка


Скачать .torrent

12 KB

Статус: проверено DHT
Скачан: торрент - 179 раз, раздача полностью - 6 раз
Размер: 4,37 GB
Оценка:  5 (Голосов: 5)
Поблагодарили: 10
Поделиться ссылкой на эту раздачу с друзьями:
В контактеFacebookОдноклассникиTwitterLivejournalМой МирLiveinternet
 

 

Magnetto83

[] 

ay Супер! az Вот спасибо тебе дорогой друг! bs А я как раз о нём только вспомнил!!! ad
 

sobmaster

[] 

Рип пойдёт на переделку, исходный ремукс от Русторрент оказался интерлейсной пережаткой и поэтому при такой резкой детализации картинки в моём рипе присутствуют артефакты при движении объектов... ac Нашёл исходный блю-рэй 24 fps, буду делать с него. ab

Ох уж мне эти новинки!!! ag
 

Magnetto83

[] 

ab Это точно! ag Ну как говорится: "взял планку качества - держи!" ay
 

sobmaster

[] 

Скачал блю-рэй 36 гигов 24 fps, и там всё то же самое... ac По ходу, китайский исходник глюченный, надо ждать трансферы... au
 

sobmaster

[] 

Полное обновление релиза!
 
Показать сообщения:    


Вы не можете начинать темы
Вы не можете отвечать на сообщения
Вы не можете редактировать свои сообщения
Вы не можете удалять свои сообщения
Вы не можете голосовать в опросах
Вы не можете прикреплять файлы к сообщениям
Вы можете скачивать файлы