Loading...
Error

Скачать Мистер Икс (Юзеф Хмельницкий) [1958, мюзикл, мелодрама, комедия, SATRip-AVC] торрент без регистрации

Статистика раздачи
Размер:  1,99 GB   |    Скачан:  3 раза
Сидов:  11  [  0 KB/s  ]   Личеров:  1  [  0 KB/s  ]  

 
 
 
Автор Сообщение

Marsianka

[] 

Информация о фильме
Название: Мистер Икс
Год выхода: 1958
Жанр: мюзикл, мелодрама, комедия
Режиссер: Юзеф Хмельницкий
В ролях: Георг Отс, Марина Юрасова, Анатолий Королькевич, Зоя Виноградова, Николай Каширский, Гликерия Богданова-Чеснокова, Григорий Ярон, Оскар Линд, Давид Волосов-Мерин, Ефим Копелян, Георгий Кульбуш, Геннадий Худяков, Тамара Богданова

О фильме:
Музыкальный телефильм по оперетте Имре Кальмана "Принцесса цирка". История любви знаменитого артиста цирка и богатой молодой вдовы графини Теодоры Вердье, всегда окруженной толпами поклонников. Графиня просит познакомить ее с таинственным цирковым артистом, ведь его выступления под куполом собирают аншлаги. Но Мистер Икс никогда не снимает свою черную маску... В фильме снялись лучшие артисты оперетты того времени, но "Мистер Икс" так и остался "фильмом одного актера" - талант великого певца заполнил и подчинил и кинематографическую и музыкальную части. А исполнение Отсом знаменитой арии Мистера Икса "Снова туда, где море огней..." до сих пор считается эталонным, хотя арию исполняли и исполняют до сих пор многие оперные певцы.



Страна: СССР
Студия: Ленфильм
Продолжительность: 01:29:19
Перевод: не требуется

Файл
Кодек: h.264
Качество: SATRip
Видео: MPEG-4 AVC, 768x592, 3000 Кбит/с, 25.000 кадр/с
Звук: Аудио #1: Русский ( AC3, 2ch, 192 Кбит/с, 48.0 KHz)
Субтитры: нет
Семпл
General
Unique ID : 207038429068160754643512198911939899139 (0x9BC226A91FB9C8A59BF65FE4FBF0EF03)
Complete name : Mister.Iks.1958.SATRip-AVC.mkv
Format : Matroska
Format version : Version 2
File size : 1.99 GiB
Duration : 1 h 29 min
Overall bit rate : 3 194 kb/s
Encoded date : UTC 2017-06-17 04:31:04
Writing application : mkvmerge v7.8.0 ('River Man') 32bit built on Apr 3 2015 12:11:22
Writing library : libebml v1.3.1 + libmatroska v1.4.2

Video
ID : 1
Format : AVC
Format/Info : Advanced Video Codec
Format profile : High@L4.1
Format settings, CABAC : Yes
Format settings, ReFrames : 14 frames
Codec ID : V_MPEG4/ISO/AVC
Duration : 1 h 29 min
Bit rate : 3 000 kb/s
Width : 768 pixels
Height : 592 pixels
Display aspect ratio : 1.297
Frame rate mode : Constant
Frame rate : 25.000 FPS
Color space : YUV
Chroma subsampling : 4:2:0
Bit depth : 8 bits
Scan type : Progressive
Bits/(Pixel*Frame) : 0.264
Stream size : 1.83 GiB (92%)
Writing library : x264 core 146 r2538 121396c
Encoding settings : cabac=1 / ref=14 / deblock=1:-3:-3 / analyse=0x3:0x133 / me=umh / subme=11 / psy=1 / psy_rd=1.00:0.00 / mixed_ref=1 / me_range=32 / chroma_me=1 / trellis=2 / 8x8dct=1 / cqm=0 / deadzone=21,11 / fast_pskip=1 / chroma_qp_offset=-2 / threads=6 / lookahead_threads=1 / sliced_threads=0 / nr=0 / decimate=1 / interlaced=0 / bluray_compat=0 / constrained_intra=0 / bframes=10 / b_pyramid=2 / b_adapt=2 / b_bias=0 / direct=3 / weightb=1 / open_gop=0 / weightp=2 / keyint=250 / keyint_min=23 / scenecut=40 / intra_refresh=0 / rc_lookahead=60 / rc=2pass / mbtree=1 / bitrate=3000 / ratetol=1.0 / qcomp=0.60 / qpmin=0 / qpmax=69 / qpstep=4 / cplxblur=20.0 / qblur=0.5 / ip_ratio=1.40 / aq=1:1.00
Default : Yes
Forced : No

Audio
ID : 2
Format : AC-3
Format/Info : Audio Coding 3
Mode extension : CM (complete main)
Format settings, Endianness : Big
Codec ID : A_AC3
Duration : 1 h 29 min
Bit rate mode : Constant
Bit rate : 192 kb/s
Channel(s) : 2 channels
Channel positions : Front: L R
Sampling rate : 48.0 kHz
Frame rate : 31.250 FPS (1536 spf)
Bit depth : 16 bits
Compression mode : Lossy
Stream size : 123 MiB (6%)
Default : Yes
Forced : No




Скачать Мистер.Икс.(Юзеф.Хмельницкий).[1958.мюзикл.мелодрама.комедия.SATRip-AVC].torrent без регистрации
Золото ЗОЛОТАЯ РАЗДАЧА! СКАЧАННОЕ НЕ ЗАСЧИТЫВАЕТСЯ! Золото
Дата: Зарегистрирован   [ Тип: внешний ] Как тут cкачать?
MAGNET ссылка
MAGNET ссылка


Скачать .torrent

21 KB

Статус: проверено DHT
Скачан: торрент - 3 раз, раздача полностью - 0 раз
Размер: 1,99 GB
Оценка:  - (Голосов: 0)
Поблагодарили: 0
Поделиться ссылкой на эту раздачу с друзьями:
В контактеFacebookОдноклассникиTwitterLivejournalМой МирLiveinternet
 

 
Показать сообщения:    


Вы не можете начинать темы
Вы не можете отвечать на сообщения
Вы не можете редактировать свои сообщения
Вы не можете удалять свои сообщения
Вы не можете голосовать в опросах
Вы не можете прикреплять файлы к сообщениям
Вы можете скачивать файлы