Loading...
Error

Скачать Эль Чапо / El Chapo (Сезон 01) (Эрнесто Контрера и др.) [2017, Драма, криминал, биография, WEBRip] [MVO] (Newstudio) торрент без регистрации

Статистика раздачи
Размер:  5,18 GB   |    Скачан:  79 раз
Сидов:  1  [  0 KB/s  ]  
 
 
 
Автор Сообщение

leon030982

[] 

Эль Чапо / El Chapo


Год выпуска: 2017
Жанр: Драма, криминал, биография
Выпущено: США
Продолжительность: 1 x ~ 01:00:00
Перевод: Профессиональный (многоголосый) - Newstudio
Субтитры: нет

Режиссер: Эрнесто Контрера, Хосе Мануэль Кравиото

В ролях: Марко Де Ла О, Валентина Акоста, Алехандро Агилар, Хуан Карлос Олива, Родриго Абд, Жюльетта Пардо, Умберто Бусто, Эрнан Ромо, Абрил Шрайбер

Описание сериала: В центре криминальной драмы — история мексиканского наркобарона Эль Чапо, который долгое время скрывался от правосудия. В сериале «Эль Чапо» рассказывается о жизни известного преступника, который много лет избегал наказания, потом был пойман и сумел сбежать из тюрьмы. Наркобарону предъявляли обвинения по многочисленным статьям уголовного кодекса, в том числе он проходил подозреваемым по делам об убийстве и похищении людей.


Перевод: Александра Иванова
Релиз --

Файл
Качество: WEBRip
Видео: XviD, ~ 1500 Кбит/с, 720x368, 23.976 fps
Аудио: 48 kHz, MP3, 2 ch, ~128.00 kbps avg - [MVO]
Аудио: 48 kHz, MP3, 2 ch, ~128.00 kbps avg - [ENG]
General
Complete name : E:\Эль Чапо (сезон 1) El Chapo (2017) WEBRip - NewStudio\El.Chapo.S01E01.WEBRip..DV.NewStudio.avi
Format : AVI
Format/Info : Audio Video Interleave
File size : 697 MiB
Duration : 55mn 9s
Overall bit rate : 1 766 Kbps
Movie name : El.Chapo.S01E01.WEBRip.Rus.Eng.DV.NewStudio / NNM-Club
Writing application : VirtualDubModRus 1.5.10.2 (build 2542/release)
Writing library : VirtualDubMod build 2542/release

Video
ID : 0
Format : MPEG-4 Visual
Format profile : Advanced Simple@L5
Format settings, BVOP : 2
Format settings, QPel : No
Format settings, GMC : No warppoints
Format settings, Matrix : Default (H.263)
Codec ID : XVID
Codec ID/Hint : XviD
Duration : 55mn 9s
Bit rate : 1 429 Kbps
Width : 720 pixels
Height : 368 pixels
Display aspect ratio : 1.957
Frame rate : 23.976 fps
Color space : YUV
Chroma subsampling : 4:2:0
Bit depth : 8 bits
Scan type : Progressive
Compression mode : Lossy
Bits/(Pixel*Frame) : 0.225
Stream size : 564 MiB (81%)
Title : Rip by DriverV / NNM-Club
Writing library : XviD 64

Audio #1
ID : 1
Format : MPEG Audio
Format version : Version 1
Format profile : Layer 3
Mode : Joint stereo
Mode extension : MS Stereo
Codec ID : 55
Codec ID/Hint : MP3
Duration : 55mn 9s
Bit rate mode : Constant
Bit rate : 128 Kbps
Channel(s) : 2 channels
Sampling rate : 48.0 KHz
Compression mode : Lossy
Stream size : 50.5 MiB (7%)
Alignment : Aligned on interleaves

Audio #2
ID : 2
Format : MPEG Audio
Format version : Version 1
Format profile : Layer 3
Mode : Joint stereo
Mode extension : MS Stereo
Codec ID : 55
Codec ID/Hint : MP3
Duration : 55mn 9s
Bit rate mode : Constant
Bit rate : 128 Kbps
Channel(s) : 2 channels
Sampling rate : 48.0 KHz
Compression mode : Lossy
Stream size : 50.5 MiB (7%)
Alignment : Aligned on interleaves
Внимание! Раздача ведётся путём добавления новых серий; при каждом добавлении создётся новый торрент. Чтобы начать докачку новой серии, пользователям необходимо сделать следующее:
Остановить скачивание.
Удалить старый торрент у себя из клиента (старые серии удалять не надо).
Скачать новый торрент и запустить его у себя в клиенте вместо старого, при этом указать клиенту путь в старую папку куда и должно происходить скачивание новых серий.

Ваш клиент при этом должен произвести хеширование (проверку) старой папки (если не производит сам - помогите ему сделать это), и будет докачивать только те серии которых у вас ещё нет. Старые серии при этом не удаляются, а продолжают раздаваться!
Eсли вы уже удалили старые серии, то предотвратить повторную закачку старых серий можно, отжав галочку в соответсвующих местах при запуске нового торрента. По возможности, желательно не удалять старые серии как можно дольше чтобы релизёр не столько продолжал раздавать старые серии, а смог сконцентрироваться на новых.




Скачать Эль.Чапо.El.Chapo.(Сезон.01).(Эрнесто.Контрера.и.др.).[2017.Драма.криминал.биография.WEBRip].[MVO].(Newstudio).torrent без регистрации
Золото ЗОЛОТАЯ РАЗДАЧА! СКАЧАННОЕ НЕ ЗАСЧИТЫВАЕТСЯ! Золото
Дата: Зарегистрирован   [ Тип: внутренний ] Как тут cкачать?
MAGNET ссылка
MAGNET ссылка


Скачать .torrent

14 KB

Статус: проверено DHT
Скачан: торрент - 79 раз, раздача полностью - 61 раз
Размер: 5,18 GB
Оценка:  - (Голосов: 0)
Поблагодарили: 5
Поделиться ссылкой на эту раздачу с друзьями:
В контактеFacebookОдноклассникиTwitterLivejournalМой МирLiveinternet
 

 
Показать сообщения:    


Вы не можете начинать темы
Вы не можете отвечать на сообщения
Вы не можете редактировать свои сообщения
Вы не можете удалять свои сообщения
Вы не можете голосовать в опросах
Вы не можете прикреплять файлы к сообщениям
Вы можете скачивать файлы