Loading...
Error

Скачать Обитель зла: Вендетта / Resident Evil: Vendetta (Таканори Цудзимото) [2017, мультфильм, ужасы, фантастика, боевик, детектив, приключения, BDRip] [1080p] [Лицензия / iTunes] торрент без регистрации

Статистика раздачи
Размер:  7,91 GB   |    Скачан:  467 раз
Сидов:  2  [  0 KB/s  ]  
 
 
 
Автор Сообщение

leon030982

[] 

Обитель зла: Вендетта / Resident Evil: Vendetta


Год выхода: 2017
Жанр: мультфильм, ужасы, фантастика, боевик, детектив, приключения
Выпущено: Япония
Продолжительность: 01:37:13
Озвучивание: Дублированное [Лицензия / iTunes]
Субтитры: русские, английские

Режиссёр: Таканори Цудзимото

Актёры: Orion Acaba, Эрин Кехилл, Дэрин Де Пол, Брайан Т. Делани, Джон ДеМита, Кевин Дорман, David Earnest, Джейсон Фаунт, Jason Hightower, Ариф С. Кинчен

Описание: Сотрудник организации по борьбе с биотерроризмом B.S.A.A. Крис Редфилд проникает в таинственный особняк, который, согласно информации, является базой контрабандистов оружием. В ходе расследования Крис сталкивается с Гленом Ариасом, преступником объявленным в международный розыск, и становится свидетелем странной картины, в результате которой упускает Ариаса.



Качество: BDRip 1080p
Формат: MKV
Видео кодек: AVC
Аудио кодек: АС3, DTS
Видео: 1920x1080 (16:9), 23.976 fps, MPEG-4 AVC ~9 800 kbps avg
Аудио: 48 kHz, AC3 Dolby Digital, 6 ch, ~384 kbps - DUB
Аудио: 48 kHz, Digital Theater Systems, 3/2 (L,C,R,l,r) + LFE ch, ~1509 kbps - ENG
General
Unique ID : 191393050445143156714628060879799186773 (0x8FFCF5F06F460ADF836511562327F555)
Complete name : E:\Resident.Evil.Vendetta.2017.BDRip.1080p.mkv
Format : Matroska
Format version : Version 4 / Version 2
File size : 7.91 GiB
Duration : 1h 37mn
Overall bit rate : 11.6 Mbps
Encoded date : UTC 2017-07-01 08:30:27
Writing application : mkvmerge v13.0.0 ('The Juggler') 64bit
Writing library : libebml v1.3.4 + libmatroska v1.4.5

Video
ID : 1
Format : AVC
Format/Info : Advanced Video Codec
Format profile : High@L4.1
Format settings, CABAC : Yes
Format settings, ReFrames : 4 frames
Codec ID : V_MPEG4/ISO/AVC
Duration : 1h 37mn
Bit rate : 9 755 Kbps
Width : 1 920 pixels
Height : 1 080 pixels
Display aspect ratio : 16:9
Frame rate mode : Constant
Frame rate : 23.976 fps
Color space : YUV
Chroma subsampling : 4:2:0
Bit depth : 8 bits
Scan type : Progressive
Bits/(Pixel*Frame) : 0.196
Stream size : 6.47 GiB (82%)
Writing library : x264 core 150 r2833 df79067
Encoding settings : cabac=1 / ref=4 / deblock=1:0:0 / analyse=0x3:0x133 / me=umh / subme=7 / psy=1 / psy_rd=1.00:0.00 / mixed_ref=1 / me_range=16 / chroma_me=1 / trellis=1 / 8x8dct=1 / cqm=0 / deadzone=21,11 / fast_pskip=0 / chroma_qp_offset=-2 / threads=24 / lookahead_threads=4 / sliced_threads=0 / nr=0 / decimate=1 / interlaced=0 / bluray_compat=0 / constrained_intra=0 / bframes=3 / b_pyramid=2 / b_adapt=1 / b_bias=0 / direct=1 / weightb=1 / open_gop=0 / weightp=2 / keyint=250 / keyint_min=23 / scenecut=40 / intra_refresh=0 / rc_lookahead=40 / rc=2pass / mbtree=1 / bitrate=9755 / ratetol=1.0 / qcomp=0.60 / qpmin=0 / qpmax=69 / qpstep=4 / cplxblur=20.0 / qblur=0.5 / ip_ratio=1.40 / aq=1:1.00
Language : English
Default : Yes
Forced : No

Audio #1
ID : 2
Format : AC-3
Format/Info : Audio Coding 3
Mode extension : CM (complete main)
Format settings, Endianness : Big
Codec ID : A_AC3
Duration : 1h 37mn
Bit rate mode : Constant
Bit rate : 384 Kbps
Channel(s) : 6 channels
Channel positions : Front: L C R, Side: L R, LFE
Sampling rate : 48.0 KHz
Compression mode : Lossy
Stream size : 267 MiB (3%)
Language : Russian
Default : Yes
Forced : No

Audio #2
ID : 3
Format : DTS
Format/Info : Digital Theater Systems
Mode : 16
Format settings, Endianness : Big
Codec ID : A_DTS
Duration : 1h 37mn
Bit rate mode : Constant
Bit rate : 1 509 Kbps
Channel(s) : 6 channels
Channel positions : Front: L C R, Side: L R, LFE
Sampling rate : 48.0 KHz
Bit depth : 24 bits
Compression mode : Lossy
Stream size : 1.03 GiB (13%)
Language : English
Default : No
Forced : No

Text #1
ID : 4
Format : UTF-8
Codec ID : S_TEXT/UTF8
Codec ID/Info : UTF-8 Plain Text
Title : Full
Language : Russian
Default : No
Forced : No

Text #2
ID : 5
Format : UTF-8
Codec ID : S_TEXT/UTF8
Codec ID/Info : UTF-8 Plain Text
Title : Full
Language : English
Default : No
Forced : No

Menu
00:00:00.000 : en:00:00:00.000
00:01:57.492 : en:00:01:57.492
00:11:47.624 : en:00:11:47.624
00:17:51.946 : en:00:17:51.946
00:25:12.261 : en:00:25:12.261
00:31:00.567 : en:00:31:00.567
00:36:43.118 : en:00:36:43.118
00:42:49.817 : en:00:42:49.817
00:48:20.981 : en:00:48:20.981
00:53:50.853 : en:00:53:50.853
00:58:51.027 : en:00:58:51.027
01:06:58.598 : en:01:06:58.598
01:11:38.836 : en:01:11:38.836
01:15:13.050 : en:01:15:13.050
01:21:41.688 : en:01:21:41.688
01:29:38.748 : en:01:29:38.748



Скачать Обитель.зла.Вендетта.Resident.Evil.Vendetta.(Таканори.Цудзимото).[2017.мультфильм.ужасы.фантастика.боевик.детектив.приключения.BDRip].[1080p].[Лицензия.iTunes].torrent без регистрации
Золото ЗОЛОТАЯ РАЗДАЧА! СКАЧАННОЕ НЕ ЗАСЧИТЫВАЕТСЯ! Золото
Дата: Зарегистрирован   [ Тип: внутренний ] Как тут cкачать?
MAGNET ссылка
MAGNET ссылка


Скачать .torrent

40 KB

Статус: проверено DHT
Скачан: торрент - 467 раз, раздача полностью - 430 раз
Размер: 7,91 GB
Оценка:  5 (Голосов: 10)
Поблагодарили: 17
Поделиться ссылкой на эту раздачу с друзьями:
В контактеFacebookОдноклассникиTwitterLivejournalМой МирLiveinternet
 

 

green-kiev

[] 

Хороший фильм .! Рекомендую bs
 
Показать сообщения:    


Вы не можете начинать темы
Вы не можете отвечать на сообщения
Вы не можете редактировать свои сообщения
Вы не можете удалять свои сообщения
Вы не можете голосовать в опросах
Вы не можете прикреплять файлы к сообщениям
Вы можете скачивать файлы