Loading...
Error

Скачать Жена смотрителя зоопарка / The Zookeeper's Wife (Ники Каро) [2017, драма, военный, биография, реальные события, BDRip] [720p] [Dub] [Лицензия / iTunes] торрент без регистрации

Статистика раздачи
Размер:  6,9 GB   |    Скачан:  96 раз
Сидов:  1  [  0 KB/s  ]  
 
 
 
Автор Сообщение

leon030982

[] 

Жена смотрителя зоопарка / The Zookeeper's Wife


Год выпуска: 2017
Страна: Чехия Великобритания США
Производство: Czech Anglo Productions, Liddell Entertainment, Scion Films Limited, Rowe / Miller Productions
Жанр: драма, военный, биография, история
Продолжительность: 02:06:27
Перевод: Профессиональный (полное дублирование) [Лицензия / iTunes]
Субтитры: нет

Режиссер: Ники Каро
Авторы сценария: Анджела Уоркмэн, Дайан Акерман

В ролях: Джессика Честейн, Йохан Хелденберг, Даниэль Брюль, Тимоти Редфорд, Эфрат Дор, Иддо Голдберг, Шира Хаас, Майкл МакЭлхаттон

Описание: Реальная история отважного подвига смотрителей Варшавского зоопарка Яна и Антонины Жабинских, давших убежище и сохранивших жизнь более, чем 300 евреям во время II Мировой войны. Ежедневный риск и опасность осложняются для Жабинских взаимоотношениями с бывшим другом семьи, а ныне высокопоставленным нацистским чиновником Лутцем Хеком, влюбленным в Антонину...


Качество: BDRip [720p]
Формат: MKV
Видео: MPEG-4 AVC, 6000 Кбит/с, 1280x536, 23,976 fps
Аудио: AC3 / 5.1 / 48 kHz / 384 kbps - DUB
Аудио: DTS / 5.1 / 48 kHz / 1510 kbps - ENG
General
Unique ID : 240949885201340778176610616633037679662 (0xB5454288D862C34C812400BE9527EC2E)
Complete name : F:\The.Zookeepers.Wife.2017.BDRip.720p.mkv
Format : Matroska
Format version : Version 4 / Version 2
File size : 6.90 GiB
Duration : 2h 6mn
Overall bit rate : 7 809 Kbps
Encoded date : UTC 2017-06-20 02:28:29
Writing application : mkvmerge v12.0.0 ('Trust / Lust') 64bit
Writing library : libebml v1.3.4 + libmatroska v1.4.5

Video
ID : 1
Format : AVC
Format/Info : Advanced Video Codec
Format profile : High@L4.1
Format settings, CABAC : Yes
Format settings, ReFrames : 5 frames
Codec ID : V_MPEG4/ISO/AVC
Duration : 2h 6mn
Bit rate : 5 914 Kbps
Width : 1 280 pixels
Height : 536 pixels
Display aspect ratio : 2.40:1
Frame rate mode : Constant
Frame rate : 23.976 fps
Color space : YUV
Chroma subsampling : 4:2:0
Bit depth : 8 bits
Scan type : Progressive
Bits/(Pixel*Frame) : 0.360
Stream size : 5.09 GiB (74%)
Writing library : x264 core 150 r2833 df79067
Encoding settings : cabac=1 / ref=5 / deblock=1:-3:-3 / analyse=0x3:0x133 / me=umh / subme=7 / psy=1 / psy_rd=1.00:0.15 / mixed_ref=1 / me_range=16 / chroma_me=1 / trellis=1 / 8x8dct=1 / cqm=0 / deadzone=21,11 / fast_pskip=0 / chroma_qp_offset=-3 / threads=17 / lookahead_threads=2 / sliced_threads=0 / nr=0 / decimate=1 / interlaced=0 / bluray_compat=0 / constrained_intra=0 / bframes=3 / b_pyramid=2 / b_adapt=1 / b_bias=0 / direct=3 / weightb=1 / open_gop=0 / weightp=2 / keyint=240 / keyint_min=23 / scenecut=40 / intra_refresh=0 / rc_lookahead=40 / rc=2pass / mbtree=1 / bitrate=5914 / ratetol=1.0 / qcomp=0.60 / qpmin=10 / qpmax=69 / qpstep=4 / cplxblur=20.0 / qblur=0.5 / ip_ratio=1.40 / aq=1:1.00
Language : English
Default : Yes
Forced : No

Audio #1
ID : 2
Format : AC-3
Format/Info : Audio Coding 3
Mode extension : CM (complete main)
Format settings, Endianness : Big
Codec ID : A_AC3
Duration : 2h 6mn
Bit rate mode : Constant
Bit rate : 384 Kbps
Channel(s) : 6 channels
Channel positions : Front: L C R, Side: L R, LFE
Sampling rate : 48.0 KHz
Compression mode : Lossy
Stream size : 347 MiB (5%)
Language : Russian
Default : Yes
Forced : No

Audio #2
ID : 3
Format : DTS
Format/Info : Digital Theater Systems
Mode : 16
Format settings, Endianness : Big
Codec ID : A_DTS
Duration : 2h 6mn
Bit rate mode : Constant
Bit rate : 1 509 Kbps
Channel(s) : 6 channels
Channel positions : Front: L C R, Side: L R, LFE
Sampling rate : 48.0 KHz
Bit depth : 24 bits
Compression mode : Lossy
Stream size : 1.33 GiB (19%)
Language : English
Default : No
Forced : No

Menu
00:00:00.000 : en:00:00:00.000
00:04:55.336 : en:00:04:55.336
00:14:23.112 : en:00:14:23.112
00:21:16.942 : en:00:21:16.942
00:29:50.246 : en:00:29:50.246
00:35:39.679 : en:00:35:39.679
00:40:25.589 : en:00:40:25.589
00:49:46.191 : en:00:49:46.191
00:54:01.196 : en:00:54:01.196
01:00:25.663 : en:01:00:25.663
01:06:21.686 : en:01:06:21.686
01:11:48.929 : en:01:11:48.929
01:19:45.864 : en:01:19:45.864
01:25:10.647 : en:01:25:10.647
01:30:12.448 : en:01:30:12.448
01:36:42.421 : en:01:36:42.421
01:39:32.925 : en:01:39:32.925
01:46:18.372 : en:01:46:18.372
01:55:17.160 : en:01:55:17.160
02:01:44.297 : en:02:01:44.297



Скачать Жена.смотрителя.зоопарка.The.Zookeeper's.Wife.(Ники.Каро).[2017.драма.военный.биография.реальные.события.BDRip].[720p].[Dub].[Лицензия.iTunes].torrent без регистрации
Золото ЗОЛОТАЯ РАЗДАЧА! СКАЧАННОЕ НЕ ЗАСЧИТЫВАЕТСЯ! Золото
Дата: Зарегистрирован   [ Тип: внутренний ] Как тут cкачать?
MAGNET ссылка
MAGNET ссылка


Скачать .torrent

35 KB

Статус: проверено DHT
Скачан: торрент - 96 раз, раздача полностью - 175 раз
Размер: 6,9 GB
Оценка:  - (Голосов: 0)
Поблагодарили: 4
Поделиться ссылкой на эту раздачу с друзьями:
В контактеFacebookОдноклассникиTwitterLivejournalМой МирLiveinternet
 

 

novel

[] 

Слышал что фильм хорош забираю ay
 
Показать сообщения:    


Вы не можете начинать темы
Вы не можете отвечать на сообщения
Вы не можете редактировать свои сообщения
Вы не можете удалять свои сообщения
Вы не можете голосовать в опросах
Вы не можете прикреплять файлы к сообщениям
Вы можете скачивать файлы