Loading...
Error

Скачать В ловушке / Trapped (Викрамадитья Мотване) [2017, триллер, BDRip] [720p] [VO (Хихидок)] торрент без регистрации

Статистика раздачи
Размер:  871 MB   |    Скачан:  51 раз
Сидов:  1  [  0 KB/s  ]  
 
 
 
Автор Сообщение

МихаНЕзатор

[] 

Производство: Индия, Phantom Films
Жанр: триллер
Режиссер: Викрамадитья Мотване

Актеры: Раджкаммар Рао , Джитинджали Тапа , Йогендра Викрам Сингх

Описание:Пытаясь снять жилье подешвле в пустой многоэтажке, мужчина попадает в ловушку квартиры, без еды, воды и электричества, когда ключ от двери остается снаружи.

Дата мировой премьеры: 17 марта 2017



Реклама: перед фильмом голосовая реклама.

Продолжительность: 01:42:00
Перевод: Любительский, одноголосый [Хихикающий доктор]

Качество видео: BDRip 720p
Видео: 1280x696 (1.85:1), 23.076 fps, AVC (H.264), High@L4.1 ~1000 Кbps
Аудио : Русский (MP3, 2 ch, 192 Кбит/с)

АНОНСЫ ПОПУЛЯРНЫХ РАЗДАЧ
Format : Matroska
Format version : Version 4 / Version 2
File size : 871 MiB
Duration : 1h 42mn
Overall bit rate : 1 192 Kbps
Movie name : www.TamilRockers.lv
Encoded date : UTC 2017-06-19 15:20:32
Writing application : mkvmerge v8.3.0 ('Over the Horizon') 64bit
Writing library : libebml v1.3.1 + libmatroska v1.4.2
DURATION : 01:42:04.852000000
NUMBER_OF_FRAMES : 234467
NUMBER_OF_BYTES : 146996454
_STATISTICS_WRITING_APP : mkvmerge v8.3.0 ('Over the Horizon') 64bit
_STATISTICS_WRITING_DATE_UTC : 2017-06-19 15:20:32
_STATISTICS_TAGS : BPS DURATION NUMBER_OF_FRAMES NUMBER_OF_BYTES

Video
ID : 1
Format : AVC
Format/Info : Advanced Video Codec
Format profile : High@L4.1
Format settings, CABAC : Yes
Format settings, ReFrames : 8 frames
Codec ID : V_MPEG4/ISO/AVC
Duration : 1h 42mn
Bit rate : 1 000 Kbps
Width : 1 280 pixels
Height : 696 pixels
Display aspect ratio : 1.85:1
Frame rate mode : Constant
Frame rate : 23.976 fps
Color space : YUV
Chroma subsampling : 4:2:0
Bit depth : 8 bits
Scan type : Progressive
Bits/(Pixel*Frame) : 0.047
Stream size : 713 MiB (82%)
Writing library : x264 core 148 r2744 b97ae06
Encoding settings : cabac=1 / ref=8 / deblock=1:0:0 / analyse=0x3:0x133 / me=umh / subme=9 / psy=1 / psy_rd=1.00:0.00 / mixed_ref=1 / me_range=16 / chroma_me=1 / trellis=2 / 8x8dct=1 / cqm=0 / deadzone=21,11 / fast_pskip=0 / chroma_qp_offset=-2 / threads=12 / lookahead_threads=1 / sliced_threads=0 / nr=500 / decimate=1 / interlaced=0 / bluray_compat=0 / constrained_intra=0 / bframes=3 / b_pyramid=2 / b_adapt=2 / b_bias=0 / direct=3 / weightb=1 / open_gop=0 / weightp=2 / keyint=250 / keyint_min=23 / scenecut=40 / intra_refresh=0 / rc_lookahead=60 / rc=2pass / mbtree=1 / bitrate=1000 / ratetol=1.0 / qcomp=0.60 / qpmin=0 / qpmax=69 / qpstep=4 / cplxblur=20.0 / qblur=0.5 / ip_ratio=1.40 / aq=1:1.00
Language : English
Default : Yes
Forced : No
DURATION : 01:41:55.735000000
NUMBER_OF_FRAMES : 146631
NUMBER_OF_BYTES : 764359217
_STATISTICS_WRITING_APP : mkvmerge v8.3.0 ('Over the Horizon') 64bit
_STATISTICS_WRITING_DATE_UTC : 2017-06-19 15:20:32
_STATISTICS_TAGS : BPS DURATION NUMBER_OF_FRAMES NUMBER_OF_BYTES

Audio
ID : 2
Format : MPEG Audio
Format version : Version 1
Format profile : Layer 3
Codec ID : A_MPEG/L3
Codec ID/Hint : MP3
Duration : 1h 42mn
Bit rate mode : Constant
Bit rate : 192 Kbps
Channel(s) : 2 channels
Sampling rate : 44.1 KHz
Compression mode : Lossy
Stream size : 140 MiB (16%)
Default : Yes
Forced : No



Скачать В.ловушке.Trapped.(Викрамадитья.Мотване).[2017.триллер.BDRip].[720p].[VO.(Хихидок)].torrent без регистрации
Золото ЗОЛОТАЯ РАЗДАЧА! СКАЧАННОЕ НЕ ЗАСЧИТЫВАЕТСЯ! Золото
Дата: Зарегистрирован   [ Тип: внутренний ] Как тут cкачать?
MAGNET ссылка
MAGNET ссылка


Скачать .torrent

18 KB

Статус: проверено DHT
Скачан: торрент - 51 раз, раздача полностью - 57 раз
Размер: 871 MB
Оценка:  - (Голосов: 0)
Поблагодарили: 4
Поделиться ссылкой на эту раздачу с друзьями:
В контактеFacebookОдноклассникиTwitterLivejournalМой МирLiveinternet
 

 
Показать сообщения:    


Вы не можете начинать темы
Вы не можете отвечать на сообщения
Вы не можете редактировать свои сообщения
Вы не можете удалять свои сообщения
Вы не можете голосовать в опросах
Вы не можете прикреплять файлы к сообщениям
Вы можете скачивать файлы