Loading...
Error

Скачать Конг: Остров черепа / Kong: Skull Island [2017] ( Джордан Вот-Робертса) [Фантастика, фэнтези, боевик, приключения , WEB-DLRip 1080p ][265][DD5.1] [Dub Rus, Ukr , Englis + Subs Rus, Ukr , ENG] [ iTunes] торрент без регистрации

Статистика раздачи
Размер:  9,79 GB   |    Скачан:  151 раз
Сидов:  1  [  0 KB/s  ]  
 
 
 
Автор Сообщение

Nikolai.Baranov

[] 



Конг: Остров черепа / Kong: Skull Island




Год выпуска: 2017
Выпущено: США, Вьетнам, Legendary Pictures, Warner Bros. Pictures
Жанр: Фантастика, фэнтези, боевик, приключения
Продолжительность: 01:58:21

Озвучка 1: Дублированный - - iTunes-Russian

Озвучка 2: Дублированный - - iTunes-Ukrainian

Озвучка 3: Профессиональный многоголосый -English -Оригинал

Субтитры: Russian (Forced, iTunes), Russian (iTunes), Ukrainian (iTunes), English



IMDB

Режиссер:
Джордан Вот-Робертс

В ролях: Том Хиддлстон, Сэмюэл Л. Джексон, Джон Гудмен, Бри Ларсон, Тянь Цзин, Тоби Кеббелл, Джон Ортис, Кори Хоукинс, Джейсон Митчелл, Ши Уигхэм



На неизвестный остров в Тихом океане попадает команда ученых, военных и искателей приключений. Они вторгаются во владения могучего Конга и тем самым развязывают сражение между человеком и природой. Очень скоро исследовательская миссия превращается в игру на выживание, ее участники вынуждены буквально прорубать себе путь к спасению.





Качество :WEB-DLRip 1080p
Формат: MKV
Видео кодек: H265
Видео: 9931Kбит/сек,1920х1080(16.9),в 23.976кадр/сек, MPEG-4 Visual(Divx4)(Simple@L1)

Аудио #1:AC3 , 640 Kbps, 48.0 KHz, 6 ch- -Дублированный- iTunes-Russian

Аудио #2:AC3 , 384 Kbps, 48.0 KHz, 6 ch- -Дублированный- iTunes-Ukrainian

Аудио #3: AC3, 640 Kbps, 48.0 KHz,6 ch - - English-Английский -Оригинал



Общее
Уникальный идентификатор : 232634139094103093977302186406012535770 (0xAF03B498D13E709DB0B34EE0D61843DA)
Полное имя : C:\ХОББИ\ПИРАТИЯ(PIRATIYA)\КОНГ ОСТРОВ ЧЕРЕПА\Kong_Skull_Island__2017_Rus_Ukr[DUB_iTuness]_Eng_H265_DD5.1_N.B_WEB-DL_1080p\Kong_Skull_Island__2017_Rus_Ukr[DUB_iTuness]_Eng_H265_DD5.1_N.B_WEB-DL_1080p.mkv
Формат : Matroska
Версия формата : Version 4 / Version 2
Размер файла : 9,59 Гбайт
Продолжительность : 1 ч. 58 м.
Общий поток : 11,6 Мбит/сек
Название фильма : Kong_Skull_Island__2017_Rus_Ukr[DUB_iTuness]_Eng_H265_DD5.1_N.B_WEB-DL_1080p
Дата кодирования : UTC 2017-06-22 04:36:52
Программа кодирования : mkvmerge v12.0.0 ('Trust / Lust') 64bit
Библиотека кодирования : libebml v1.3.4 + libmatroska v1.4.5

Видео
Идентификатор : 1
Формат : MPEG-4 Visual
Профиль формата : Simple@L1
Параметр BVOP формата : Нет
Параметр QPel формата : Нет
Параметр GMC формата : Без точки перехода
Параметр матрицы формата : Default (H.263)
Идентификатор кодека : V_MS/VFW/FOURCC / DIVX
Идентификатор кодека/Информация : Project Mayo
Идентификатор кодека/Подсказка : DivX 4
Продолжительность : 1 ч. 58 м.
Битрейт : 9931 Кбит/сек
Ширина : 1920 пикселей
Высота : 1080 пикселей
Соотношение сторон : 16:9
Режим частоты кадров : Постоянный
Частота кадров : 23,976 кадра/сек
Цветовое пространство : YUV
Субдискретизация насыщенности : 4:2:0
Битовая глубина : 8 бит
Тип развёртки : Прогрессивная
Метод сжатия : С потерями
Бит/(Пиксели*Кадры) : 0.200
Размер потока : 8,21 Гбайт (86%)
Заголовок : Kong_Skull_Island__2017_Rus_Ukr[DUB_iTuness]_Eng_H265_DD5.1_N.B_WEB-DL_1080p
Библиотека кодирования : Lavc56.13.100
Язык : Russian
Default : Да
Forced : Нет

Аудио #1
Идентификатор : 6
Формат : AC-3
Формат/Информация : Audio Coding 3
Параметр Endianness формата : Big
Идентификатор кодека : A_AC3
Продолжительность : 1 ч. 58 м.
Вид битрейта : Постоянный
Битрейт : 640 Кбит/сек
Каналы : 6 каналов
Расположение каналов : Front: L C R, Side: L R, LFE
Частота : 48,0 КГц
Частота кадров : 31,250 кадров/сек (1536 spf)
Битовая глубина : 16 бит
Метод сжатия : С потерями
Размер потока : 542 Мбайт (6%)
Заголовок : Rus DUB iTuness @DD5.1 AC3 ,640 Kbps, 48.0 KHz, 6 ch
Язык : Russian
ServiceKind/String : Complete Main
Default : Да
Forced : Нет

Аудио #2
Идентификатор : 7
Формат : AC-3
Формат/Информация : Audio Coding 3
Параметр Endianness формата : Big
Идентификатор кодека : A_AC3
Продолжительность : 1 ч. 58 м.
Вид битрейта : Постоянный
Битрейт : 384 Кбит/сек
Каналы : 6 каналов
Расположение каналов : Front: L C R, Side: L R, LFE
Частота : 48,0 КГц
Частота кадров : 31,250 кадров/сек (1536 spf)
Битовая глубина : 16 бит
Метод сжатия : С потерями
Размер потока : 325 Мбайт (3%)
Заголовок : Ukr DUB iTuness @DD5.1 AC3 ,384 Kbps, 48.0 KHz, 6 ch
Язык : Ukrainian
ServiceKind/String : Complete Main
Default : Нет
Forced : Нет

Аудио #3
Идентификатор : 8
Формат : AC-3
Формат/Информация : Audio Coding 3
Параметр Endianness формата : Big
Идентификатор кодека : A_AC3
Продолжительность : 1 ч. 58 м.
Вид битрейта : Постоянный
Битрейт : 640 Кбит/сек
Каналы : 6 каналов
Расположение каналов : Front: L C R, Side: L R, LFE
Частота : 48,0 КГц
Частота кадров : 31,250 кадров/сек (1536 spf)
Битовая глубина : 16 бит
Метод сжатия : С потерями
Размер потока : 542 Мбайт (6%)
Заголовок : Original@DD5.1 AC3 ,640 Kbps, 48.0 KHz, 6 ch
Язык : English
ServiceKind/String : Complete Main
Default : Нет
Forced : Нет

Текст #1
Идентификатор : 2
Формат : UTF-8
Идентификатор кодека : S_TEXT/UTF8
Идентификатор кодека/Информация : UTF-8 Plain Text
Продолжительность : 1 ч. 57 м.
Битрейт : 3 бит/сек
ElementCount : 66
Размер потока : 3,31 Кбайт (0%)
Заголовок : Forced - iTunes
Язык : Russian
Default : Да
Forced : Нет

Текст #2
Идентификатор : 3
Формат : UTF-8
Идентификатор кодека : S_TEXT/UTF8
Идентификатор кодека/Информация : UTF-8 Plain Text
Продолжительность : 1 ч. 57 м.
Битрейт : 76 бит/сек
ElementCount : 1264
Размер потока : 65,3 Кбайт (0%)
Заголовок : Rus - iTunes
Язык : Russian
Default : Нет
Forced : Нет

Текст #3
Идентификатор : 4
Формат : UTF-8
Идентификатор кодека : S_TEXT/UTF8
Идентификатор кодека/Информация : UTF-8 Plain Text
Продолжительность : 1 ч. 57 м.
Битрейт : 3 бит/сек
ElementCount : 61
Размер потока : 2,72 Кбайт (0%)
Заголовок : Ukr - iTunes
Язык : Ukrainian
Default : Нет
Forced : Нет

Текст #4
Идентификатор : 5
Формат : UTF-8
Идентификатор кодека : S_TEXT/UTF8
Идентификатор кодека/Информация : UTF-8 Plain Text
Продолжительность : 1 ч. 54 м.
Битрейт : 51 бит/сек
ElementCount : 1343
Размер потока : 42,8 Кбайт (0%)
Заголовок : Original
Язык : English
Default : Нет
Forced : Нет

Меню
00:00:00.000 : en:Глава 01 / en:Глава 01 / en:Глава 01 / en:Глава 01 / en:Глава 01 / en:Глава 01 / en:Глава 01 / en:Глава 01










Релиз от: Nikolai.Baranov & PIRATIYA










Скачать Конг.Остров.черепа.Kong.Skull.Island.[2017].(.Джордан.Вот-Робертса).[Фантастика.фэнтези.боевик.приключения.WEB-DLRip.1080p.][265][DD5.1].[Dub.Rus.Ukr.Englis.+.Subs.Rus.Ukr.ENG].[.iTunes].torrent без регистрации
Золото ЗОЛОТАЯ РАЗДАЧА! СКАЧАННОЕ НЕ ЗАСЧИТЫВАЕТСЯ! Золото
Дата: Зарегистрирован   [ Тип: внутренний ] Как тут cкачать?
MAGNET ссылка
MAGNET ссылка


Скачать .torrent

31 KB

Статус: проверено DHT
Скачан: торрент - 151 раз, раздача полностью - 142 раз
Размер: 9,79 GB
Оценка:  5 (Голосов: 1)
Поблагодарили: 8
Поделиться ссылкой на эту раздачу с друзьями:
В контактеFacebookОдноклассникиTwitterLivejournalМой МирLiveinternet
 

 

Slepoj

[] 

У меня пошла только на компе. Андроид-бокс не жует.
 
Показать сообщения:    


Вы не можете начинать темы
Вы не можете отвечать на сообщения
Вы не можете редактировать свои сообщения
Вы не можете удалять свои сообщения
Вы не можете голосовать в опросах
Вы не можете прикреплять файлы к сообщениям
Вы можете скачивать файлы