Loading...
Error

Скачать Конг: Остров черепа / Kong: Skull Island (Джордан Вот-Робертс) [2017, Фантастика, фэнтези, боевик, приключения, BDRip] [720p] [DUB] [R.G. GoldenShara] торрент без регистрации

Статистика раздачи
Размер:  3,87 GB   |    Скачан:  134 раза

Полного источника не было: 2 месяца 2 дня

 
 
 
Автор Сообщение

LORDKILL

[] 


Конг: Остров черепа / Kong: Skull Island


Год выпуска: 2017
Выпущено: США, Вьетнам
Жанр: Фантастика, фэнтези, боевик, приключения
Продолжительность: 01:58:23
Перевод: Профессиональный (полное дублирование)
Субтитры: русские, английские

Режиссер: Джордан Вот-Робертс

В ролях: Том Хиддлстон, Сэмюэл Л. Джексон, Джон Гудмен, Бри Ларсон, Тянь Цзин, Тоби Кеббелл, Джон Ортис, Кори Хоукинс, Джейсон Митчелл, Ши Уигхэм

Описание: На неизвестный остров в Тихом океане попадает команда ученых, военных и искателей приключений. Они вторгаются во владения могучего Конга и тем самым развязывают сражение между человеком и природой. Очень скоро исследовательская миссия превращается в игру на выживание, ее участники вынуждены буквально прорубать себе путь к спасению.







Качество: BDRip 720p
Формат: MKV
Видео кодек: H.264
Аудио кодек: AC3
Видео: 1280x536 (2.40:1), 4227 kbps, 23.976 fps
Аудио: Русский (AC-3, 6ch, 448 kbps)

x264 [info]: frame I:1820 Avg QP:17.89 size:131619
x264 [info]: frame P:47380 Avg QP:19.76 size: 46486
x264 [info]: frame B:121112 Avg QP:22.33 size: 10827
x264 [info]: consecutive B-frames: 4.8% 7.6% 21.0% 22.5% 14.3% 26.3% 3.0% 0.3% 0.5%
x264 [total]: encoded 170312 frames, 4.89 fps, 4227.15 kb/s
General
Unique ID : 191410086471231536285317317607272401030 (0x90003DE150654C328C6CD51AD6C6C886)
Complete name : F:\ФИЛЬМЫ\Конг.Остров.черепа.2017.x264.BDRip.720p.DUB.mkv
Format : Matroska
Format version : Version 4 / Version 2
File size : 3.87 GiB
Duration : 1 h 58 min
Overall bit rate : 4 678 kb/s
Movie name : Конг: Остров черепа / Kong: Skull Island (2017) - #LORDKILL#
Encoded date : UTC 2017-08-04 09:41:40
Writing application : mkvmerge v9.5.0 ('Quiet Fire') 64bit
Writing library : libebml v1.3.4 + libmatroska v1.4.5
Cover : Yes
Attachments : Cover - Kong.Skull.Island.png

Video
ID : 1
Format : AVC
Format/Info : Advanced Video Codec
Format profile : High@L4.1
Format settings, CABAC : Yes
Format settings, ReFrames : 11 frames
Codec ID : V_MPEG4/ISO/AVC
Duration : 1 h 58 min
Bit rate : 4 227 kb/s
Width : 1 280 pixels
Height : 536 pixels
Display aspect ratio : 2.40:1
Frame rate mode : Constant
Frame rate : 23.976 (24000/1001) FPS
Color space : YUV
Chroma subsampling : 4:2:0
Bit depth : 8 bits
Scan type : Progressive
Bits/(Pixel*Frame) : 0.257
Stream size : 3.50 GiB (90%)
Writing library : x264 core 146 r2538 121396c
Encoding settings : cabac=1 / ref=11 / deblock=1:-3:-3 / analyse=0x3:0x113 / me=umh / subme=11 / psy=1 / psy_rd=1.00:0.10 / mixed_ref=1 / me_range=64 / chroma_me=1 / trellis=2 / 8x8dct=1 / cqm=0 / deadzone=21,11 / fast_pskip=0 / chroma_qp_offset=-3 / threads=12 / lookahead_threads=2 / sliced_threads=0 / nr=0 / decimate=1 / interlaced=0 / bluray_compat=0 / constrained_intra=0 / bframes=8 / b_pyramid=2 / b_adapt=2 / b_bias=0 / direct=1 / weightb=1 / open_gop=0 / weightp=2 / keyint=240 / keyint_min=23 / scenecut=40 / intra_refresh=0 / rc=crf / mbtree=0 / crf=19.0 / qcomp=0.60 / qpmin=0 / qpmax=69 / qpstep=4 / ip_ratio=1.40 / pb_ratio=1.30 / aq=1:1.00
Language : English
Default : Yes
Forced : No

Audio
ID : 2
Format : AC-3
Format/Info : Audio Coding 3
Mode extension : CM (complete main)
Format settings, Endianness : Big
Codec ID : A_AC3
Duration : 1 h 58 min
Bit rate mode : Constant
Bit rate : 448 kb/s
Channel(s) : 6 channels
Channel positions : Front: L C R, Side: L R, LFE
Sampling rate : 48.0 kHz
Frame rate : 31.250 FPS (1536 spf)
Bit depth : 16 bits
Compression mode : Lossy
Stream size : 379 MiB (10%)
Title : Дублированный (Лицензия)
Language : Russian
Default : Yes
Forced : No

Text #1
ID : 3
Format : UTF-8
Codec ID : S_TEXT/UTF8
Codec ID/Info : UTF-8 Plain Text
Duration : 1 h 57 min
Bit rate : 3 b/s
Count of elements : 66
Stream size : 3.31 KiB (0%)
Title : Forced
Language : Russian
Default : Yes
Forced : No

Text #2
ID : 4
Format : UTF-8
Codec ID : S_TEXT/UTF8
Codec ID/Info : UTF-8 Plain Text
Duration : 1 h 57 min
Bit rate : 76 b/s
Count of elements : 1264
Stream size : 65.3 KiB (0%)
Title : Full
Language : Russian
Default : No
Forced : No

Text #3
ID : 5
Format : UTF-8
Codec ID : S_TEXT/UTF8
Codec ID/Info : UTF-8 Plain Text
Duration : 1 h 54 min
Bit rate : 46 b/s
Count of elements : 974
Stream size : 39.0 KiB (0%)
Title : Full
Language : English
Default : No
Forced : No

Menu
00:00:00.000 : en:Chapter 01
00:08:54.742 : en:Chapter 02
00:19:51.773 : en:Chapter 03
00:30:01.132 : en:Chapter 04
00:40:00.106 : en:Chapter 05
00:50:13.260 : en:Chapter 06
01:00:49.729 : en:Chapter 07
01:10:29.600 : en:Chapter 08
01:18:05.889 : en:Chapter 09
01:30:12.657 : en:Chapter 10
01:39:09.026 : en:Chapter 11
01:47:05.836 : en:Chapter 12
01:58:23.179 : en:Chapter 13





Скачать Конг.Остров.черепа.Kong.Skull.Island.(Джордан.Вот-Робертс).[2017.Фантастика.фэнтези.боевик.приключения.BDRip].[720p].[DUB].[R.G.GoldenShara].torrent без регистрации
Золото ЗОЛОТАЯ РАЗДАЧА! СКАЧАННОЕ НЕ ЗАСЧИТЫВАЕТСЯ! Золото
Дата: Зарегистрирован   [ Тип: внутренний ] Как тут cкачать?
MAGNET ссылка
MAGNET ссылка


Скачать .torrent

20 KB

Статус: проверено
Скачан: торрент - 134 раз, раздача полностью - 88 раз
Размер: 3,87 GB
Оценка:  5 (Голосов: 3)
Поблагодарили: 8
Поделиться ссылкой на эту раздачу с друзьями:
В контактеFacebookОдноклассникиTwitterLivejournalМой МирLiveinternet
 

 

LORDKILL

[] 

ТОРРЕНТ ОБНОВЛЕН! извините за неудобство, поэкспериментировав, добился меньшего размера и четкой картины, и заменил предыдущий торрент!
 

Hellboy200

[] 

Спасибо хороший размер и качество изображения ab
 
Показать сообщения:    


Вы не можете начинать темы
Вы не можете отвечать на сообщения
Вы не можете редактировать свои сообщения
Вы не можете удалять свои сообщения
Вы не можете голосовать в опросах
Вы не можете прикреплять файлы к сообщениям
Вы можете скачивать файлы