Loading...
Error

Скачать Форсаж 8 / The Fate of the Furious (Ф. Гэри Грей) [2017, Боевик, триллер, криминал, BDRip][1080p] [DUB iTunes] [R.G. GoldenShara] торрент без регистрации

Статистика раздачи
Размер:  4,37 GB   |    Скачан:  428 раз
Сидов:  5  [  0 KB/s  ]  
 
 
 
Автор Сообщение

Magnetto83

[] 


Форсаж 8 / The Fate of the Furious




Год выпуска: 2017
Выпущено: США | One Race Films, Original Film, Пифагор, Universal Pictures
Жанр: Боевик, триллер, криминал
Продолжительность: 02:15:58
Перевод: Профессиональный (полное дублирование) | iTunes |
Субтитры: Русские (forced, full), английские (forced, full+SHD)
Навигация по главам: Сохранены оригинальные главы как на Blu-ray

Слоган: «Их дороги расходятся»

Режиссер: Ф. Гэри Грей

В ролях: Вин Дизель, Дуэйн Джонсон, Джейсон Стэйтем, Мишель Родригес, Тайриз Гибсон, Лудакрис, Натали Эммануэль, Курт Расселл, Скотт Иствуд, Шарлиз Терон

Описание: Пристегните ремни — гонка продолжается. Гавана, Берлин, Нью-Йорк — для самой крутой команды в мире нет ничего невозможного, пока они вместе. Но когда на их пути окажется одна из самых красивых женщин на планете и по совместительству королева кибер преступности, дороги друзей разойдутся.



Возраст: 12+ (зрителям, достигшим 12 лет)
Рейтинг MPAA: PG-13 (детям до 13 лет просмотр нежелателен)

Качество: BDRip 1080p
Формат: MKV
Видео кодек: H.264
Аудио кодек: AC3
Видео: 1908x804 (2.40:1), 4214 Кбит/с, 23.976 fps
Аудио: Русский Dolby Digital 5.1 (384 Кбит/с)


x264 [info]: frame I:1768 Avg QP:17.54 size:140269
x264 [info]: frame P:61375 Avg QP:21.22 size: 36811
x264 [info]: frame B:132438 Avg QP:22.80 size: 13492
x264 [info]: consecutive B-frames: 10.7% 7.7% 14.0% 17.1% 18.1% 26.7% 3.9% 0.9% 0.9%
x264 [total]: encoded 195581 frames, 1.41 fps, 4211.27 kb/s



General
Complete name : D:\Video\HD\Кино Хиты 2017\Форсаж 8 2017 Dub Rus iTunes BDRip 1080p.mkv
Format : Matroska
Format version : Version 4 / Version 2
File size : 4.37 GiB
Duration : 2h 15mn
Overall bit rate : 4 597 Kbps
Movie name : Форсаж 8 2017 Dub Rus BDRip 1080p By R.G. GoldenShara
Encoded date : UTC 2017-07-03 19:16:20
Writing application : mkvmerge v7.8.0 ('River Man') 32bit built on Mar 27 2015 16:18:02
Writing library : libebml v1.3.1 + libmatroska v1.4.2
DURATION : 02:04:09.533000000
NUMBER_OF_FRAMES : 1841
NUMBER_OF_BYTES : 55254
_STATISTICS_WRITING_APP : mkvmerge v7.8.0 ('River Man') 32bit built on Mar 27 2015 16:18:02
_STATISTICS_WRITING_DATE_UTC : 2017-07-03 19:16:20
_STATISTICS_TAGS : BPS DURATION NUMBER_OF_FRAMES NUMBER_OF_BYTES

Video
ID : 1
Format : AVC
Format/Info : Advanced Video Codec
Format profile : High@L4.1
Format settings, CABAC : Yes
Format settings, ReFrames : 5 frames
Codec ID : V_MPEG4/ISO/AVC
Duration : 2h 15mn
Bit rate : 4 214 Kbps
Width : 1 920 pixels
Height : 804 pixels
Display aspect ratio : 2.40:1
Frame rate mode : Constant
Frame rate : 23.976 fps
Color space : YUV
Chroma subsampling : 4:2:0
Bit depth : 8 bits
Scan type : Progressive
Bits/(Pixel*Frame) : 0.114
Stream size : 3.91 GiB (90%)
Title : Форсаж 8 2017 BDRip 1080p By Magnetto 83
Writing library : x264 core 146 r2538 121396c
Encoding settings : cabac=1 / ref=5 / deblock=1:-1:-1 / analyse=0x3:0x113 / me=umh / subme=10 / psy=1 / psy_rd=1.00:0.00 / mixed_ref=1 / me_range=32 / chroma_me=1 / trellis=2 / 8x8dct=1 / cqm=0 / deadzone=21,11 / fast_pskip=0 / chroma_qp_offset=-2 / threads=3 / lookahead_threads=1 / sliced_threads=0 / nr=0 / decimate=1 / interlaced=0 / bluray_compat=0 / constrained_intra=0 / bframes=8 / b_pyramid=2 / b_adapt=2 / b_bias=0 / direct=3 / weightb=1 / open_gop=0 / weightp=2 / keyint=250 / keyint_min=23 / scenecut=40 / intra_refresh=0 / rc=2pass / mbtree=0 / bitrate=4214 / ratetol=1.0 / qcomp=0.60 / qpmin=0 / qpmax=69 / qpstep=4 / cplxblur=20.0 / qblur=0.5 / ip_ratio=1.40 / pb_ratio=1.30 / aq=2:1.00
Language : English
Default : Yes
Forced : No

Audio
ID : 2
Format : AC-3
Format/Info : Audio Coding 3
Mode extension : CM (complete main)
Format settings, Endianness : Big
Codec ID : A_AC3
Duration : 2h 15mn
Bit rate mode : Constant
Bit rate : 384 Kbps
Channel(s) : 6 channels
Channel positions : Front: L C R, Side: L R, LFE
Sampling rate : 48.0 KHz
Compression mode : Lossy
Delay relative to video : -1s 0ms
Stream size : 373 MiB (8%)
Title : DD 5.1 @ 384 kbps - Дубляж | iTunes |
Language : Russian
Default : Yes
Forced : No

Text #1
ID : 3
Format : UTF-8
Codec ID : S_TEXT/UTF8
Codec ID/Info : UTF-8 Plain Text
Title : Forced, iTunes
Language : Russian
Default : Yes
Forced : No

Text #2
ID : 4
Format : UTF-8
Codec ID : S_TEXT/UTF8
Codec ID/Info : UTF-8 Plain Text
Title : iTunes
Language : Russian
Default : No
Forced : No

Text #3
ID : 5
Format : UTF-8
Codec ID : S_TEXT/UTF8
Codec ID/Info : UTF-8 Plain Text
Title : Forced, iTunes
Language : English
Default : No
Forced : No

Text #4
ID : 6
Format : UTF-8
Codec ID : S_TEXT/UTF8
Codec ID/Info : UTF-8 Plain Text
Title : SDH, iTunes
Language : English
Default : No
Forced : No

Menu
00:00:00.000 : en:1
00:13:09.914 : en:2
00:20:31.772 : en:3
00:26:39.639 : en:4
00:32:27.778 : en:5
00:36:41.573 : en:6
00:43:36.613 : en:7
00:47:46.779 : en:8
00:56:01.732 : en:9
01:04:09.302 : en:10
01:09:09.060 : en:11
01:13:25.274 : en:12
01:21:26.713 : en:13
01:29:30.947 : en:14
01:35:13.456 : en:15
01:39:56.780 : en:16
01:45:01.709 : en:17
01:53:02.856 : en:18
02:01:52.260 : en:19
02:06:46.095 : en:20







Скачать Форсаж.8.The.Fate.of.the.Furious.(Ф.Гэри.Грей).[2017.Боевик.триллер.криминал.BDRip][1080p].[DUB.iTunes].[R.G.GoldenShara].torrent без регистрации
Золото ЗОЛОТАЯ РАЗДАЧА! СКАЧАННОЕ НЕ ЗАСЧИТЫВАЕТСЯ! Золото
Дата: Зарегистрирован   [ Тип: внутренний ] Как тут cкачать?
MAGNET ссылка
MAGNET ссылка


Скачать .torrent

11 KB

Статус: Τ временная раздача
Скачан: торрент - 428 раз, раздача полностью - 964 раз
Размер: 4,37 GB
Оценка:  5 (Голосов: 9)
Поблагодарили: 23
Поделиться ссылкой на эту раздачу с друзьями:
В контактеFacebookОдноклассникиTwitterLivejournalМой МирLiveinternet
 

 

Magnetto83

[] 

Примечание! При появлении расширенной версии, после выхода лицензии, этот рип будет полностью переделан!
 

Kitaec1

[] 

Magnetto83
Отличный рип получился, благодарен.
 

Magnetto83

[] 

bs Пожалуйста! az
 

oblivion83

[] 

Magnetto83
Братишка!!! Спасибо за Вин Дросиля!!! ay az az az
 

Magnetto83

[] 

az az az На здоровье!!! ag ad
 

Rocco_S

[] 

Magnetto83, а что, обещали extended ?
 

Magnetto83

[] 

bw Официально инфы конечно нет! bv Но наметилась такая тенденция в последних частях - выпускать после выхода лицензии, через какое-то короткое время расширенку! ad
 

oblivion83

[] 

Magnetto83
Братишка!!! Спасибо за Вин Дросиля!!! ay az az az
 

wuwechka

[] 

Э-рон-дон-дон ay
 
Показать сообщения:    


Вы не можете начинать темы
Вы не можете отвечать на сообщения
Вы не можете редактировать свои сообщения
Вы не можете удалять свои сообщения
Вы не можете голосовать в опросах
Вы не можете прикреплять файлы к сообщениям
Вы можете скачивать файлы