Loading...
Error

Скачать Обитель зла: Вендетта / Resident Evil: Vendetta (Таканори Цудзимото) [2017, Мультфильм, ужасы, фантастика, боевик, детектив, приключения, BDRip][1080p][DUB iTunes] [R.G. GoldenShara] торрент без регистрации

Статистика раздачи
Размер:  4,36 GB   |    Скачан:  152 раза

Полного источника не было: 11 часов

 
 
 
Автор Сообщение

Magnetto83

[] 


Обитель зла: Вендетта / Resident Evil: Vendetta


Год выпуска: 2017
Выпущено: Япония / Marza Animation Planet.
Жанр: Мультфильм, ужасы, фантастика, боевик, детектив, приключения
Продолжительность: 01:37:15
Перевод: Профессиональный (полное дублирование) | iTunes |
Субтитры: Русские (Полные), Английские (Full)
Навигация по главам: Сохранены оригинальные главы как на Blu-ray

Режиссер: Таканори Цудзимото

В ролях: Кевин Дорман, Мэттью Мерсер, Эрин Кехилл, Кари Уолгрен, Ариф С. Кинчен, Арни Пантойя, Джон ДеМита, Кристина Валенсуела, Фред Татаскьор, Александр Полински

Описание: Сотрудник организации по борьбе с биотерроризмом B.S.A.A. Крис Редфилд проникает в таинственный особняк, который, согласно информации, является базой контрабандистов оружием. В ходе расследования Крис сталкивается с Гленом Ариасом, преступником объявленным в международный розыск, и становится свидетелем странной картины, в результате которой упускает Ариаса.



Возраст: 18+ (зрителям, достигшим 18 лет. запрещено для детей)
Рейтинг MPAA: R (лицам до 17 лет обязательно присутствие взрослого)

Качество: BDRip 1080p
Формат: MKV
Видео кодек: H.264
Аудио кодек: AC3
Видео: 1920x1080 (16:9), 6043 kbps, 23.976 fps
Аудио: Русский Dolby Digital 5.1 (384 Кбит/с)


x264 [info]: frame I:863 Avg QP:16.69 size:200043
x264 [info]: frame P:35448 Avg QP:19.77 size: 60205
x264 [info]: frame B:103585 Avg QP:21.69 size: 20211
x264 [info]: consecutive B-frames: 4.4% 7.3% 5.0% 36.4% 10.2% 9.2% 9.3% 16.5% 1.7%
x264 [total]: encoded 139896 frames, 1.49 fps, 6033.23 kb/s



General
Unique ID : 218770422349730463492583406975675784974 (0xA495A69690F69EEEAF65C02FE233DF0E)
Complete name : G:\Видео\Мои Рипы 1080p\Кино-Хиты 2017\Обитель зла. Вендетта 2017 Dub Rus iTunes BDRip 1080p.mkv
Format : Matroska
Format version : Version 4 / Version 2
File size : 4.36 GiB
Duration : 1h 37mn
Overall bit rate : 6 419 Kbps
Movie name : Resident Evil: Vendetta 2017 Dub Rus BDRip 1080p By R.G. GoldenShara
Encoded date : UTC 2017-07-07 21:05:07
Writing application : mkvmerge v7.0.0 ('Where We Going') 64bit built on Jun 9 2014 15:16:27
Writing library : libebml v1.3.0 + libmatroska v1.4.1
DURATION : 01:35:49.458000000
NUMBER_OF_FRAMES : 587
NUMBER_OF_BYTES : 20426
_STATISTICS_WRITING_APP : mkvmerge v7.0.0 ('Where We Going') 64bit built on Jun 9 2014 15:16:27
_STATISTICS_WRITING_DATE_UTC : 2017-07-07 21:05:07
_STATISTICS_TAGS : BPS DURATION NUMBER_OF_FRAMES NUMBER_OF_BYTES

Video
ID : 1
Format : AVC
Format/Info : Advanced Video Codec
Format profile : High@L4.1
Format settings, CABAC : Yes
Format settings, ReFrames : 4 frames
Codec ID : V_MPEG4/ISO/AVC
Duration : 1h 37mn
Bit rate : 6 043 Kbps
Width : 1 920 pixels
Height : 1 080 pixels
Display aspect ratio : 16:9
Frame rate mode : Constant
Frame rate : 23.976 fps
Color space : YUV
Chroma subsampling : 4:2:0
Bit depth : 8 bits
Scan type : Progressive
Bits/(Pixel*Frame) : 0.122
Stream size : 4.01 GiB (92%)
Title : Biohazard: Vendetta 2017 BDRip 1080p By Magnetto 83
Writing library : x264 core 146 r2538 121396c
Encoding settings : cabac=1 / ref=4 / deblock=1:-1:-1 / analyse=0x3:0x113 / me=umh / subme=10 / psy=1 / psy_rd=1.00:0.00 / mixed_ref=1 / me_range=32 / chroma_me=1 / trellis=2 / 8x8dct=1 / cqm=0 / deadzone=21,11 / fast_pskip=0 / chroma_qp_offset=-2 / threads=3 / lookahead_threads=1 / sliced_threads=0 / nr=0 / decimate=1 / interlaced=0 / bluray_compat=0 / constrained_intra=0 / bframes=8 / b_pyramid=2 / b_adapt=2 / b_bias=0 / direct=3 / weightb=1 / open_gop=0 / weightp=2 / keyint=250 / keyint_min=23 / scenecut=40 / intra_refresh=0 / rc=2pass / mbtree=0 / bitrate=6043 / ratetol=1.0 / qcomp=0.60 / qpmin=0 / qpmax=69 / qpstep=4 / cplxblur=20.0 / qblur=0.5 / ip_ratio=1.40 / pb_ratio=1.30 / aq=2:1.00
Default : Yes
Forced : No

Audio
ID : 2
Format : AC-3
Format/Info : Audio Coding 3
Mode extension : CM (complete main)
Format settings, Endianness : Big
Codec ID : A_AC3
Duration : 1h 37mn
Bit rate mode : Constant
Bit rate : 384 Kbps
Channel(s) : 6 channels
Channel positions : Front: L C R, Side: L R, LFE
Sampling rate : 48.0 KHz
Compression mode : Lossy
Delay relative to video : 1s 0ms
Stream size : 267 MiB (6%)
Title : DD 5.1 @ 384 Kbps - Dub | iTunes |
Language : Russian
Default : Yes
Forced : No

Text #1
ID : 3
Format : UTF-8
Codec ID : S_TEXT/UTF8
Codec ID/Info : UTF-8 Plain Text
Title : Полные
Language : Russian
Default : No
Forced : No

Text #2
ID : 4
Format : UTF-8
Codec ID : S_TEXT/UTF8
Codec ID/Info : UTF-8 Plain Text
Title : Full
Language : English
Default : No
Forced : No

Menu
00:00:00.000 : en:1
00:01:56.491 : en:2
00:11:46.622 : en:3
00:17:50.944 : en:4
00:25:11.259 : en:5
00:30:59.565 : en:6
00:36:42.115 : en:7
00:42:48.814 : en:8
00:48:19.978 : en:9
00:53:49.849 : en:10
00:58:50.024 : en:11
01:06:57.594 : en:12
01:11:37.831 : en:13
01:15:12.044 : en:14
01:21:40.681 : en:15
01:29:37.741 : en:16







Скачать Обитель.зла.Вендетта.Resident.Evil.Vendetta.(Таканори.Цудзимото).[2017.Мультфильм.ужасы.фантастика.боевик.детектив.приключения.BDRip][1080p][DUB.iTunes].[R.G.GoldenShara].torrent без регистрации
Золото ЗОЛОТАЯ РАЗДАЧА! СКАЧАННОЕ НЕ ЗАСЧИТЫВАЕТСЯ! Золото
Дата: Зарегистрирован   [ Тип: внутренний ] Как тут cкачать?
MAGNET ссылка
MAGNET ссылка


Скачать .torrent

11 KB

Статус: проверено
Скачан: торрент - 152 раз, раздача полностью - 338 раз
Размер: 4,36 GB
Оценка:  5 (Голосов: 4)
Поблагодарили: 13
Поделиться ссылкой на эту раздачу с друзьями:
В контактеFacebookОдноклассникиTwitterLivejournalМой МирLiveinternet
 

 
Показать сообщения:    


Вы не можете начинать темы
Вы не можете отвечать на сообщения
Вы не можете редактировать свои сообщения
Вы не можете удалять свои сообщения
Вы не можете голосовать в опросах
Вы не можете прикреплять файлы к сообщениям
Вы можете скачивать файлы